Важное объявление!
У Нас Все раздачи мультитрекерные, при нуле пиров в релизах, можете смело вставать на закачку!
 
Автор Сообщение

HUNTER

Стаж:
4 года 4 месяца
Сообщений:
56842

Репутация: 101

[+] [-]
Вне форума [Профиль] [ЛС]

Анатолий Некрасов - Видео-диски "Здоровье.Семья.Деятельность"
Страна: Россия
Тематика: Духовная психология
Тип раздаваемого материала: Видеоурок
Продолжительность: 1:59 + 3:03
Год выпуска: 2008
Язык: Русский
Перевод: Не требуется
Описание: Анатолий Некрасов - известный общественный деятель, духовный психолог, философ, член Союза писателей РФ, ведущий специалист в области семейных и межличностных отношений, Автор "Нового учения о Семье", Всероссийского общественного движения "Счастливая Семья", автор более 20 книг. Анатолий Некрасов утверждает, что главный показатель качества жизни – это ПОСТОЯННО РАСТУЩИЕ СЧАСТЬЕ И РАДОСТЬ! Оказывается, это возможно. И этому можно научиться. Людям достаточно выстроить гармоничную картину жизни и естественную систему ценностей в сознании; при этом выстраивается осознанное взаимодействие с клетками своего организма, развивается механизм управляемой регенерации, что рождает уникальные практики оздоровления и омоложения тела. А Наука о Семье учит, что СЧАСТЛИВУЮ СЕМЬЮ можно выстроить ГАРАНТИРОВАННО.
Запись видео-семинаров, ведет Анатолий Некрасов. Семинар-лекция «Три в одном» - "Здоровье.Семья.Деятельность"
Здоровье (первый диск)
Понятие здоровья гораздо шире, чем только здоровье тела.
Вы узнаете, какое понимание здоровья делает человека счастливым.
Семья (второй диск)
Без фундамента, на одной любви, счастливую семью построить невозможно. Вы узнаете, для чего и как правильно создавать счастливую семью.
Деятельность (второй диск)
Вы узнаете, как создать стабильный устойчивый бизнес, и быть успешным в любой деятельности.
DVD диски с семинарами Анатолия Некрасова можно на сайте Школы Мудрости Анатолия Некрасова.
Качество: DVDRip
Формат: MP4
Видео кодек: H.264
Аудио кодек: AAC
Видео: h.264, 512x384, 4:3, 520 Kbps, 25 fps
Аудио: AAC, 96 Kbps, 48 kHz, 2 Ch

Скриншоты

mediainfo (диск 1)

General
Complete name : F:\TORRENTS\Некрасов_mp4\1.1.Здоровье_520_512х384.mp4
Format : MPEG-4
Format profile : Base Media / Version 2
Codec ID : mp42
File size : 531 MiB
Duration : 1h 59mn
Overall bit rate : 620 Kbps
Writing application : TMPGEnc Video Mastering Works 5 Version. 5.0.6.38
Video
ID : 2
Format : AVC
Format/Info : Advanced Video Codec
Format profile : High@L3.1
Format settings, CABAC : Yes
Format settings, ReFrames : 3 frames
Codec ID : avc1
Codec ID/Info : Advanced Video Coding
Duration : 1h 59mn
Bit rate mode : Variable
Bit rate : 520 Kbps
Maximum bit rate : 8 000 Kbps
Width : 512 pixels
Height : 384 pixels
Display aspect ratio : 4:3
Frame rate mode : Constant
Frame rate : 25.000 fps
Standard : NTSC
Color space : YUV
Chroma subsampling : 4:2:0
Bit depth : 8 bits
Scan type : Progressive
Bits/(Pixel*Frame) : 0.106
Stream size : 446 MiB (84%)
Writing library : x264 core 114
Encoding settings : cabac=1 / ref=3 / deblock=1:0:0 / analyse=0x3:0x113 / me=hex / subme=7 / psy=1 / psy_rd=1.00:0.00 / mixed_ref=1 / me_range=16 / chroma_me=1 / trellis=1 / 8x8dct=1 / cqm=2 / deadzone=21,11 / fast_pskip=1 / chroma_qp_offset=-4 / threads=3 / sliced_threads=0 / slices=1 / nr=0 / decimate=1 / interlaced=0 / constrained_intra=0 / bframes=3 / b_pyramid=0 / b_adapt=1 / b_bias=0 / direct=1 / weightb=1 / open_gop=0 / weightp=2 / keyint=250 / keyint_min=25 / scenecut=40 / intra_refresh=0 / rc_lookahead=40 / rc=2pass / mbtree=1 / bitrate=520 / ratetol=1.0 / qcomp=0.60 / qpmin=5 / qpmax=69 / qpstep=4 / cplxblur=20.0 / qblur=0.5 / vbv_maxrate=8000 / vbv_bufsize=7995 / nal_hrd=vbr / ip_ratio=1.40 / aq=1:1.00
Color primaries : BT.470-6 System B, BT.470-6 System G, BT.601-6 625, BT.1358 625, BT.1700 625 PAL, BT.1700 625 SECAM
Transfer characteristics : BT.470-6 System B, BT.470-6 System G
Matrix coefficients : BT.470-6 System B, BT.470-6 System G, BT.601-6 625, BT.1358 625, BT.1700 625 PAL, BT.1700 625 SECAM, IEC 61966-2-4 601
Audio
ID : 1
Format : AAC
Format/Info : Advanced Audio Codec
Format profile : LC
Codec ID : 40
Duration : 1h 59mn
Bit rate mode : Variable
Bit rate : 96.0 Kbps
Maximum bit rate : 576 Kbps
Channel(s) : 2 channels
Channel positions : Front: L R
Sampling rate : 48.0 KHz
Compression mode : Lossy
Stream size : 82.4 MiB (16%)

об источнике

Рип с этих DVD дисков http://rutracker.org/forum/viewtopic.php?t=2959379

_________________
Показать сообщения:    

Текущее время: Сегодня 18:07

Часовой пояс: GMT



Вы не можете начинать темы
Вы не можете отвечать на сообщения
Вы не можете редактировать свои сообщения
Вы не можете удалять свои сообщения
Вы не можете голосовать в опросах
Вы не можете прикреплять файлы к сообщениям
Вы не можете скачивать файлы
Наши партнеры: интернет магазин Ивановского трикотажа textilla.ru