Важное объявление!
У Нас Все раздачи мультитрекерные, при нуле пиров в релизах, можете смело вставать на закачку!
 
Автор Сообщение

HUNTER

Стаж:
4 года 4 месяца
Сообщений:
56822

Репутация: 101

[+] [-]
Вне форума [Профиль] [ЛС]

Амулет- -Страна: Россия
Жанр: боевик, приключения
Год выпуска: 2013
Производство: «Эвентра Филмс»
Продолжительность: 01:17:43
Оригинальная аудиодорожка: русский
Cубтитры: нет-Режиссер: Дмитрий Амвросов-В ролях:
Борис Покровский (II), Олег Чудницов, Анастасия Макеева, Шухрат Курбанов, Анастасия Борисова(I),
Артур Бичахчян, Сергей Лобынцев, Дана Назарова, Владислав Котлярский, Василий Солодков-Описание:
Ничего не подозревающему фотографу Одиссею от дяди достался старинный медальон, обладающий огромной силой, —
амулет Александра Македонского. К Одиссею, который о силе сокровища ничего не знает, наведываются бандиты, готовые на всё…-Возраст: 16+-Качество: HDTV (1080i)
Формат: TS
Видео кодек: AVC
Аудио кодек: AC3

Видео: AVC, 1920 х 1080 (16:9), 25,000 кадр/сек, 12 800 Кбит/сек, 0.247 bit/pixel
Аудио: AC3, 48000 Hz, 448 Kbps, 6 каналов
-

MediaInfo

General
ID : 1 (0x1)
Complete name : D:\Раздачи\Амулет HDTV (1080i)\Amulet.2013.HDTV.(1080i).MediaClub.ts
Format : MPEG-TS
File size : 7.56 GiB
Duration : 1h 17mn
Overall bit rate mode : Variable
Overall bit rate : 13.9 Mbps
Video
ID : 3551 (0xDDF)
Menu ID : 1 (0x1)
Format : AVC
Format/Info : Advanced Video Codec
Format profile : Main@L4
Format settings, CABAC : Yes
Format settings, ReFrames : 3 frames
Codec ID : 27
Duration : 1h 17mn
Bit rate : 12.8 Mbps
Width : 1 920 pixels
Height : 1 080 pixels
Display aspect ratio : 16:9
Frame rate : 25.000 fps
Standard : Component
Color space : YUV
Chroma subsampling : 4:2:0
Bit depth : 8 bits
Scan type : Interlaced
Scan type, store method : Separated fields
Scan order : Top Field First
Bits/(Pixel*Frame) : 0.247
Stream size : 6.94 GiB (92%)
Color range : Limited
Color primaries : BT.709
Transfer characteristics : BT.709
Matrix coefficients : BT.709
Audio
ID : 3553 (0xDE1)
Menu ID : 1 (0x1)
Format : AC-3
Format/Info : Audio Coding 3
Mode extension : CM (complete main)
Format settings, Endianness : Big
Codec ID : 6
Duration : 1h 17mn
Bit rate mode : Constant
Bit rate : 448 Kbps
Channel(s) : 6 channels
Channel positions : Front: L C R, Side: L R, LFE
Sampling rate : 48.0 KHz
Frame rate : 31.250 fps (1536 spf)
Compression mode : Lossy
Stream size : 249 MiB (3%)
Language : Russian

Скриншоты


-Раздаю до первых 5-ти скачавших, на раздачи не возвращаюсь...-

_________________
Показать сообщения:    

Текущее время: Сегодня 05:31

Часовой пояс: GMT



Вы не можете начинать темы
Вы не можете отвечать на сообщения
Вы не можете редактировать свои сообщения
Вы не можете удалять свои сообщения
Вы не можете голосовать в опросах
Вы не можете прикреплять файлы к сообщениям
Вы не можете скачивать файлы