Важное объявление!
У Нас Все раздачи мультитрекерные, при нуле пиров в релизах, можете смело вставать на закачку!
 
Автор Сообщение

HUNTER

Стаж:
4 года 4 месяца
Сообщений:
56734

Репутация: 101

[+] [-]
Вне форума [Профиль] [ЛС]

Американский Папаша / American Dad--
--Год выпуска:2012-2013
Страна:США
Жанр: Мультсериал, Комедия, Пародия
Продолжительность: ~00:22:00
Кол-во эпизодов: 1-14 из 19
Перевод: Профессиональный (многоголосый закадровый)
Субтитры: Нет-Режиссёр:Сет Макфарлейн / Seth MacFarlane-Описание:
Американский папа — это американский телевизионный сериал производства студии «Андердог» (Underdog Productions) и «Фаззи Дор» (Fuzzy Door Productions) по заказу 20th Century Fox. Он был придуман и разработан, в большей степени, Сетом Макфарлейном, создателем сериала «Гриффины». «Американский папаша» является ярким представителем сатирического мультипликационного сериала, о жизни американской семьи. Сюжет разворачивается вокруг семьи Смитов, которая состоит из четырёх человек, одного пришельца и говорящей «Золотой рыбки». Сериал постоянно концентрируется на различных особенностях поп-культуры, политики, религии и любых других тематиках, часто фигурирующих в обществе. В сериале часто звучат «колкости» о современном обществе и тонкий юмор, показывающий особенности Американского общества.-Качество: WEB-DL 720p
Формат: MKV
Видео: AVC, 1280x718, 23,976 fps, ~2300 kbps
Аудио:1. AC3, 48Chz, 2 ch, 192 kbps [RUS, Filiza Studio]
Аудио:2. AC3, 48Chz, 6 ch, 384 kbps [ENG, Оригинал]
-

Эпизоды

1. Love, American Dad Style
2. Killer Vacation
3. Can I Be Frank (With You)
4. American Stepdad
5. Why Can't We Be Friends
6. Adventures in Hayleysitting
7. National Treasure 4: Baby Franny: She's Doing Well: The Hole Story
8. Finger Lenting Good
9. The Adventures of Twill Ongenbone and His Boy Jabari
10. Blood Crieth Unto Heaven
11. Max Jets
12. Naked to the Limit, One More Time
13. For Black Eyes Only
14. Spelling Bee My Baby
-

MediaInfo

Общее
Уникальный идентификатор : 203274135046412755471210579804969590350 (0x98ED2CA2E44692E0B904A69C9EF15E4E)
Полное имя : C:\Users\Александр\Диск\Раздачи на рутрекере\American Dad Season 8 (2012) [WEB-DL 720p] [Filiza Studio]\American.Dad.S08E01.Love,American.Dad.Style.720p.WEB-DL.Filiza Studio.mkv
Формат : Matroska
Версия формата : Version 2
Размер файла : 462 Мбайт
Продолжительность : 21 м.
Общий поток : 2986 Кбит/сек
Дата кодирования : UTC 2012-11-15 17:54:12
Программа кодирования : mkvmerge v5.8.0 ('No Sleep / Pillow') built on Sep 2 2012 15:37:04
Библиотека кодирования : libebml v1.2.3 + libmatroska v1.3.0
Видео
Идентификатор : 2
Формат : AVC
Формат/Информация : Advanced Video Codec
Профиль формата : [url=mailto:High@L3.1]High@L3.1[/url]
Параметр CABAC формата : Нет
Параметр ReFrames формата : 2 кадра
Идентификатор кодека : V_MPEG4/ISO/AVC
Продолжительность : 21 м.
Битрейт : 2350 Кбит/сек
Ширина : 1280 пикселей
Высота : 718 пикселей
Соотношение сторон : 16:9
Частота кадров : 23,976 кадра/сек
Цветовое пространство : YUV
Субдискретизация насыщенности : 4:2:0
Битовая глубина : 8 бит
Тип развёртки : Прогрессивная
Бит/(Пиксели*Кадры) : 0.107
Размер потока : 364 Мбайт (79%)
Язык : English
Основные цвета : BT.709-5, BT.1361, IEC 61966-2-4, SMPTE RP177
Характеристики трансфера : BT.709-5, BT.1361
Коэффициенты матрицы : BT.709-5, BT.1361, IEC 61966-2-4 709, SMPTE RP177
Аудио #1
Идентификатор : 1
Формат : AC-3
Формат/Информация : Audio Coding 3
Расширение режима : CM (complete main)
Идентификатор кодека : A_AC3
Продолжительность : 21 м.
Вид битрейта : Постоянный
Битрейт : 192 Кбит/сек
Каналы : 2 канала
Расположение каналов : Front: L R
Частота : 48,0 КГц
Битовая глубина : 16 бит
Метод сжатия : С потерями
Задержка видео : 1 с. 400 мс.
Размер потока : 29,7 Мбайт (6%)
Заголовок : Filiza Studio
Язык : Russian
Аудио #2
Идентификатор : 3
Формат : AC-3
Формат/Информация : Audio Coding 3
Расширение режима : CM (complete main)
Идентификатор кодека : A_AC3
Продолжительность : 21 м.
Вид битрейта : Постоянный
Битрейт : 384 Кбит/сек
Каналы : 6 каналов
Расположение каналов : Front: L C R, Side: L R, LFE
Частота : 48,0 КГц
Битовая глубина : 16 бит
Метод сжатия : С потерями
Задержка видео : 10 мс.
Размер потока : 59,5 Мбайт (13%)
Заголовок : Original
Язык : English
-

Скриншоты


_________________
Показать сообщения:    

Текущее время: Сегодня 09:10

Часовой пояс: GMT



Вы не можете начинать темы
Вы не можете отвечать на сообщения
Вы не можете редактировать свои сообщения
Вы не можете удалять свои сообщения
Вы не можете голосовать в опросах
Вы не можете прикреплять файлы к сообщениям
Вы не можете скачивать файлы