Важное объявление!
У Нас Все раздачи мультитрекерные, при нуле пиров в релизах, можете смело вставать на закачку!
 
Автор Сообщение

HUNTER

Стаж:
4 года 4 месяца
Сообщений:
56808

Репутация: 101

[+] [-]
Вне форума [Профиль] [ЛС]

Альфа и Омега 4: Легенда о Зубастой Пещере / Alpha and Omega: The Legend of the Saw Toothed Cave
Страна: США
Жанр: мультфильм, комедия, приключения.
Продолжительность: 00:43:15
Год выпуска: 2014
Перевод: Профессиональный (дублированный) SDI Media
Русские субтитры: нет
Режиссёр: Ричард Рич : Richard Rich
Описание: После знакомства с привидениями зубастой пещеры. Кроха находит волка, который был изгнан из своей стаи. После чего собирает все свое мужество в кулак, чтобы помочь ей.
Все раздачи мультфильма.
Семпл.
Качество: DVB
Формат: MPEG
Видео: MPEG Video, 720x576, 25.000 fps, 1973 Kbps
Аудио: MPEG Audio, 48.0 KHz, 2 channels, 128 Kbps - DUB [SDI Media]
Аудио 2: MPEG Audio, 48.0 KHz, 2 channels, 128 Kbps - ENG [Оригинал]
Субтитры: отсутствуют

Подробные технические данные

ОбщееПолное имя : C:\Альфа и омега 4.mpgФормат : MPEG-PSРазмер файла : 703 МбайтПродолжительность : 43 м.Режим общего битрейта : ПеременныйОбщий поток : 2274 Кбит/сек
ВидеоИдентификатор : 224 (0xE0)Формат : MPEG VideoВерсия формата : Version 2Профиль формата : Main@MainПараметр BVOP формата : ДаПараметр матрицы формата : ВыборочнаяПараметр GOP формата : M=3, N=15Продолжительность : 43 м.Вид битрейта : ПеременныйБитрейт : 1973 Кбит/секМаксимальный битрейт : 9500 Кбит/секШирина : 720 пикселейВысота : 576 пикселейСоотношение сторон : 4:3Частота кадров : 25,000 кадров/секСтандарт вещания : PALЦветовое пространство : YUVСубдискретизация насыщенности : 4:2:0Битовая глубина : 8 битТип развёртки : ЧересстрочнаяПорядок развёртки : Верхнее поле первоеМетод сжатия : С потерямиБит/(Пиксели*Кадры) : 0.190Временной код первого кадра : 00:00:00:00Оригинал временного кода : Group of pictures headerРазмер потока : 610 Мбайт (87%)
Аудио #1Идентификатор : 192 (0xC0)Формат : MPEG AudioВерсия формата : Version 1Профиль формата : Layer 2Продолжительность : 43 м.Вид битрейта : ПостоянныйБитрейт : 128 Кбит/секКаналы : 2 каналаЧастота : 48,0 КГцМетод сжатия : С потерямиРазмер потока : 39,6 Мбайт (6%)
Аудио #2Идентификатор : 193 (0xC1)Формат : MPEG AudioВерсия формата : Version 1Профиль формата : Layer 2Продолжительность : 43 м.Вид битрейта : ПостоянныйБитрейт : 128 Кбит/секКаналы : 2 каналаЧастота : 48,0 КГцМетод сжатия : С потерямиРазмер потока : 39,6 Мбайт (6%)

Скриншоты


_________________
Показать сообщения:    

Текущее время: Сегодня 08:43

Часовой пояс: GMT



Вы не можете начинать темы
Вы не можете отвечать на сообщения
Вы не можете редактировать свои сообщения
Вы не можете удалять свои сообщения
Вы не можете голосовать в опросах
Вы не можете прикреплять файлы к сообщениям
Вы не можете скачивать файлы