Важное объявление!
У Нас Все раздачи мультитрекерные, при нуле пиров в релизах, можете смело вставать на закачку!
 
Автор Сообщение

HUNTER

Стаж:
4 года 4 месяца
Сообщений:
56798

Репутация: 101

[+] [-]
Вне форума [Профиль] [ЛС]

Алиса в Стране чудес. Алиса в Зазеркалье.
Жанр: мультфильм
Год выпуска: 1981-1982
Продолжительность: 00:30:14 + 00:38:37
Режиссёр: Ефрем Пружанский
Описание: мультфильм по одноимённым сказкам Льюиса Кэролла ...
Перевод стихов — С. Маршака и Н. Орловской. Текст песни — В. Левина.
Использована музыка О. Респиги и Л. Боккерини.
1) Девочка Алиса через кроличью нору попадает в Страну чудес, где с ней происходят волшебные превращения и где она знакомится со странными существами: Чеширским Котом, Мартовским Зайцем и другими ...
2) Алиса проходит сквозь зеркало, знакомится с шахматными фигурами и участвует в шахматной партии в качестве белой королевской пешки ...
Доп. информация:

Релиз группы:
Трансляция спутникового канала: "Карусель"
Качество видео: DVB
Формат видео: MPEG-PS
Видео: MPEG2 Video, 720x576, 25 fps, 3700 kbps
Аудио: MPEG Audio, 2 сh, 48 kHz, 192 kbps

MediaInfo

Алиса в Стране чудес

General
Complete name : D:\Алиса в Стране чудес и Зазеркалье\Алиса в Стране чудес. (1981)_DVB by SLuMeP.mpg
Format : MPEG-PS
File size : 827 MiB
Duration : 30mn 14s
Overall bit rate mode : Variable
Overall bit rate : 3 823 Kbps
Video #224
ID : 224 (0xE0)
Format : MPEG Video
Format version : Version 2
Format profile : Main@Main
Format settings, BVOP : Yes
Format settings, Matrix : Custom
Duration : 30mn 14s
Bit rate mode : Variable
Bit rate : 3 555 Kbps
Maximum bit rate : 5 000 Kbps
Width : 720 pixels
Height : 576 pixels
Display aspect ratio : 4:3
Frame rate : 25.000 fps
Standard : PAL
Color space : YUV
Chroma subsampling : 4:2:0
Bit depth : 8 bits
Scan type : Interlaced
Scan order : Top Field First
Compression mode : Lossy
Bits/(Pixel*Frame) : 0.343
Stream size : 769 MiB (93%)
Audio #192
ID : 192 (0xC0)
Format : MPEG Audio
Format version : Version 1
Format profile : Layer 2
Duration : 30mn 14s
Bit rate mode : Constant
Bit rate : 192 Kbps
Channel(s) : 2 channels
Sampling rate : 48.0 KHz
Compression mode : Lossy
Stream size : 41.5 MiB (5%)

Алиса в Зазеркалье

General
Complete name : D:\Алиса в Стране чудес и Зазеркалье\Алиса в Зазеркалье. (1982)_DVB by SLuMeP.mpg
Format : MPEG-PS
File size : 1 015 MiB
Duration : 38mn 37s
Overall bit rate mode : Variable
Overall bit rate : 3 674 Kbps
Video #224
ID : 224 (0xE0)
Format : MPEG Video
Format version : Version 2
Format profile : Main@Main
Format settings, BVOP : Yes
Format settings, Matrix : Custom
Duration : 38mn 37s
Bit rate mode : Variable
Bit rate : 3 409 Kbps
Maximum bit rate : 5 000 Kbps
Width : 720 pixels
Height : 576 pixels
Display aspect ratio : 4:3
Frame rate : 25.000 fps
Standard : PAL
Color space : YUV
Chroma subsampling : 4:2:0
Bit depth : 8 bits
Scan type : Interlaced
Scan order : Top Field First
Compression mode : Lossy
Bits/(Pixel*Frame) : 0.329
Stream size : 942 MiB (93%)
Audio #192
ID : 192 (0xC0)
Format : MPEG Audio
Format version : Version 1
Format profile : Layer 2
Duration : 38mn 37s
Bit rate mode : Constant
Bit rate : 192 Kbps
Channel(s) : 2 channels
Sampling rate : 48.0 KHz
Compression mode : Lossy
Stream size : 53.0 MiB (5%)

_________________
Показать сообщения:    

Текущее время: Сегодня 07:15

Часовой пояс: GMT



Вы не можете начинать темы
Вы не можете отвечать на сообщения
Вы не можете редактировать свои сообщения
Вы не можете удалять свои сообщения
Вы не можете голосовать в опросах
Вы не можете прикреплять файлы к сообщениям
Вы не можете скачивать файлы