Важное объявление!
У Нас Все раздачи мультитрекерные, при нуле пиров в релизах, можете смело вставать на закачку!
 
Автор Сообщение

HUNTER

Стаж:
4 года 4 месяца
Сообщений:
56798

Репутация: 101

[+] [-]
Вне форума [Профиль] [ЛС]

Алиса в Зазеркалье / Alice Through the Looking Glass
Страна: США
Студия: Legend3D, Roth Films, Team Todd, Tim Burton Productions, Walt Disney Pictures
Жанр: Фэнтези, приключения, семейный
Год выпуска: 2016
Продолжительность: 01:52:59
Перевод: Профессиональный (дублированный) iTunes Russia
Перевод 2: Профессиональный (дублированный) iTunes - украинский
Cубтитры: русские (Forced, iTunes), русские (iTunes), украинские (Forced, iTunes), английские (Forced, iTunes), английские (iTunes)
Оригинальная аудиодорожка: английский
Режиссер: Джеймс Бобин / James Bobin
В ролях: Миа Васиковска, Джонни Депп, Клаудио Энкарнасьон Монтеро, Саша Барон Коэн, Энн Хэтэуэй, Хелена Бонем Картер, Алан Рикман, Эндрю Скотт, Майкл Шин, Рис Иванс
Описание: Победив огнедышащего дракона Бармаглота и свергнув с трона Красную Королеву, Алиса возвращается в свой родной мир. Три года она плавает по китайским морям в звании капитана корабля "Чудо", перевозя торговые грузы и занимаясь делами компании своего покойного отца, Чарльза Кингсли. Но вскоре ей предстоит вновь с головой окунуться в водоворот захватывающих приключений и ярких красок дневного свечения, опередив само время, чтобы спасти своего лучшего друга, Сумасшедшего Шляпника.
Сэмпл: http://multi-up.com/1118836
Тип релиза: WEB-DL 1080p
Контейнер: MKV
Видео: MPEG-4 AVC, 4000 Кбит/с, 1920x1038, 23.976 fps
Аудио: Russian: 48 kHz, AC3, 3/2 (L,C,R,l,r) + LFE ch, ~384.00 kbps avg |Дубляж, iTunes Russia|
Аудио 2: Ukrainian: 48 kHz, AAC, 2/0 (L,R) ch, ~160.00 kbps avg |Дубляж, iTunes|
Аудио 3: English: 48 kHz, AC3, 3/2 (L,C,R,l,r) + LFE ch, ~384.00 kbps avg
Формат субтитров: softsub (SRT)

MediaInfo

Общее
Уникальный идентификатор : 180592462764932588264534000563323506228 (0x87DCD7DA7204C7C088D53470D9618E34)
Полное имя : D:\Alice.Through.the.Looking.Glass.2016.1080p.WEB-DL-002.mkv
Формат : Matroska
Версия формата : Version 1
Размер файла : 64,4 Мбайт
Продолжительность : 1 м. 50 с.
Общий поток : 4886 Кбит/сек
Название фильма : Alice Through the Looking Glass (2016)
Дата кодирования : UTC 2016-09-20 12:04:23
Программа кодирования : mkvmerge v2.1.0 ('Another Place To Fall') built on Aug 19 2007 13:45:34
Библиотека кодирования : libebml v0.7.7 + libmatroska v0.8.1
Видео
Идентификатор : 1
Формат : AVC
Формат/Информация : Advanced Video Codec
Профиль формата : High@L4
Параметр CABAC формата : Да
Параметр ReFrames формата : 4 кадра
Идентификатор кодека : V_MPEG4/ISO/AVC
Продолжительность : 1 м. 50 с.
Ширина : 1920 пикселей
Высота : 1038 пикселей
Соотношение сторон : 1,85:1
Режим частоты кадров : Постоянный
Частота кадров : 24,000 кадра/сек
Цветовое пространство : YUV
Субдискретизация насыщенности : 4:2:0
Битовая глубина : 8 бит
Тип развёртки : Прогрессивная
Язык : English
Default : Да
Forced : Нет
Цветовой диапазон : Limited
Основные цвета : BT.709
Характеристики трансфера : BT.709
Коэффициенты матрицы : BT.709
Statistics Tags Issue : mkvmerge v7.9.0 ('Birds') 64bit 2016-09-19 21:31:28 / mkvmerge v2.1.0 ('Another Place To Fall') built on Aug 19 2007 13:45:34 2016-09-20 12:04:23
FromStats_BitRate : 5122671
FromStats_Duration : 01:53:19.132000000
FromStats_FrameCount : 163016
FromStats_StreamSize : 4353714846
Аудио #1
Идентификатор : 2
Формат : AC-3
Формат/Информация : Audio Coding 3
Расширение режима : CM (complete main)
Параметр Endianness формата : Big
Идентификатор кодека : A_AC3
Продолжительность : 1 м. 50 с.
Вид битрейта : Постоянный
Битрейт : 384 Кбит/сек
Каналы : 6 каналов
Расположение каналов : Front: L C R, Side: L R, LFE
Частота : 48,0 КГц
Частота кадров : 31,250 кадров/сек (1536 spf)
Метод сжатия : С потерями
Задержка видео : 14 мс.
Размер потока : 5,06 Мбайт (8%)
Заголовок : AC3 5.1 @ 384 kbps - DUB, iTunes
Язык : Russian
Default : Да
Forced : Нет
Statistics Tags Issue : mkvmerge v7.9.0 ('Birds') 64bit 2016-09-19 21:31:28 / mkvmerge v2.1.0 ('Another Place To Fall') built on Aug 19 2007 13:45:34 2016-09-20 12:04:23
FromStats_BitRate : 384000
FromStats_Duration : 01:53:11.104000000
FromStats_FrameCount : 212222
FromStats_StreamSize : 325972992
Аудио #2
Идентификатор : 3
Формат : AAC
Формат/Информация : Advanced Audio Codec
Профиль формата : LC
Идентификатор кодека : A_AAC
Продолжительность : 1 м. 50 с.
Каналы : 2 канала
Расположение каналов : Front: L R
Частота : 48,0 КГц
Частота кадров : 46,875 кадров/сек (1024 spf)
Метод сжатия : С потерями
Задержка видео : -7 мс.
Заголовок : AAC 2.0 @ 160 kbps - DUB, iTunes
Язык : Ukrainian
Default : Нет
Forced : Нет
Statistics Tags Issue : mkvmerge v7.9.0 ('Birds') 64bit 2016-09-19 21:31:28 / mkvmerge v2.1.0 ('Another Place To Fall') built on Aug 19 2007 13:45:34 2016-09-20 12:04:23
FromStats_BitRate : 157194
FromStats_Duration : 01:52:57.152000000
FromStats_FrameCount : 317679
FromStats_StreamSize : 133166229
Аудио #3
Идентификатор : 4
Формат : AC-3
Формат/Информация : Audio Coding 3
Расширение режима : CM (complete main)
Параметр Endianness формата : Big
Идентификатор кодека : A_AC3
Продолжительность : 1 м. 50 с.
Вид битрейта : Постоянный
Битрейт : 384 Кбит/сек
Каналы : 6 каналов
Расположение каналов : Front: L C R, Side: L R, LFE
Частота : 48,0 КГц
Частота кадров : 31,250 кадров/сек (1536 spf)
Метод сжатия : С потерями
Задержка видео : -18 мс.
Размер потока : 5,06 Мбайт (8%)
Заголовок : AC3 5.1 @ 384 kbps
Язык : English
Default : Нет
Forced : Нет
Statistics Tags Issue : mkvmerge v7.9.0 ('Birds') 64bit 2016-09-19 21:31:28 / mkvmerge v2.1.0 ('Another Place To Fall') built on Aug 19 2007 13:45:34 2016-09-20 12:04:23
FromStats_BitRate : 384000
FromStats_Duration : 01:52:57.088000000
FromStats_FrameCount : 211784
FromStats_StreamSize : 325300224
Текст #1
Идентификатор : 5
Формат : UTF-8
Идентификатор кодека : S_TEXT/UTF8
Идентификатор кодека/Информация : UTF-8 Plain Text
Заголовок : Forced, iTunes
Язык : Russian
Default : Да
Forced : Нет
Statistics Tags Issue : mkvmerge v7.9.0 ('Birds') 64bit 2016-09-19 21:31:28 / mkvmerge v2.1.0 ('Another Place To Fall') built on Aug 19 2007 13:45:34 2016-09-20 12:04:23
FromStats_BitRate : 0
FromStats_Duration : 01:43:24.078000000
FromStats_FrameCount : 6
FromStats_StreamSize : 187
Текст #2
Идентификатор : 6
Формат : UTF-8
Идентификатор кодека : S_TEXT/UTF8
Идентификатор кодека/Информация : UTF-8 Plain Text
Заголовок : iTunes
Язык : Russian
Default : Нет
Forced : Нет
Statistics Tags Issue : mkvmerge v7.9.0 ('Birds') 64bit 2016-09-19 21:31:28 / mkvmerge v2.1.0 ('Another Place To Fall') built on Aug 19 2007 13:45:34 2016-09-20 12:04:23
FromStats_BitRate : 68
FromStats_Duration : 01:51:51.465000000
FromStats_FrameCount : 1391
FromStats_StreamSize : 57065
Текст #3
Идентификатор : 7
Формат : UTF-8
Идентификатор кодека : S_TEXT/UTF8
Идентификатор кодека/Информация : UTF-8 Plain Text
Заголовок : Forced, iTunes
Язык : Ukrainian
Default : Нет
Forced : Нет
Statistics Tags Issue : mkvmerge v7.9.0 ('Birds') 64bit 2016-09-19 21:31:28 / mkvmerge v2.1.0 ('Another Place To Fall') built on Aug 19 2007 13:45:34 2016-09-20 12:04:23
FromStats_BitRate : 0
FromStats_Duration : 01:24:34.371000000
FromStats_FrameCount : 5
FromStats_StreamSize : 155
Текст #4
Идентификатор : 8
Формат : UTF-8
Идентификатор кодека : S_TEXT/UTF8
Идентификатор кодека/Информация : UTF-8 Plain Text
Заголовок : Forced, iTunes
Язык : English
Default : Нет
Forced : Нет
Statistics Tags Issue : mkvmerge v7.9.0 ('Birds') 64bit 2016-09-19 21:31:28 / mkvmerge v2.1.0 ('Another Place To Fall') built on Aug 19 2007 13:45:34 2016-09-20 12:04:23
FromStats_BitRate : 98
FromStats_Duration : 00:00:03.004000000
FromStats_FrameCount : 2
FromStats_StreamSize : 37
Текст #5
Идентификатор : 9
Формат : UTF-8
Идентификатор кодека : S_TEXT/UTF8
Идентификатор кодека/Информация : UTF-8 Plain Text
Заголовок : iTunes
Язык : English
Default : Нет
Forced : Нет
Statistics Tags Issue : mkvmerge v7.9.0 ('Birds') 64bit 2016-09-19 21:31:28 / mkvmerge v2.1.0 ('Another Place To Fall') built on Aug 19 2007 13:45:34 2016-09-20 12:04:23
FromStats_BitRate : 40
FromStats_Duration : 01:51:28.144000000
FromStats_FrameCount : 1370
FromStats_StreamSize : 34139
Меню
00:00:00.000 : en:Coronation

Скриншоты


_________________
Показать сообщения:    

Текущее время: Сегодня 06:46

Часовой пояс: GMT



Вы не можете начинать темы
Вы не можете отвечать на сообщения
Вы не можете редактировать свои сообщения
Вы не можете удалять свои сообщения
Вы не можете голосовать в опросах
Вы не можете прикреплять файлы к сообщениям
Вы не можете скачивать файлы