Важное объявление!
У Нас Все раздачи мультитрекерные, при нуле пиров в релизах, можете смело вставать на закачку!
 
Автор Сообщение

HUNTER

Стаж:
4 года 4 месяца
Сообщений:
56755

Репутация: 101

[+] [-]
Вне форума [Профиль] [ЛС]

Алиса в Зазеркалье / Alice Through the Looking Glass
Страна: США, Великобритания
Студия: Walt Disney Pictures
Жанр: фэнтези, приключения, семейный
Год выпуска: 2016
Продолжительность: 01:53:12
Перевод: Профессиональный (дублированный) iTunes
Cубтитры: Rus, Eng
Оригинальная аудиодорожка: английский
Режиссер: Джеймс Бобин / James Bobin
В ролях: Миа Васиковска, Джонни Депп, Хелена Бонем Картер, Энн Хэтэуэй, Саша Барон Коэн, Рис Иванс, Мэтт Лукас, Линдси Дункан, Лео Билл, Джеральдин Джеймс
Описание: На этот раз главной героине предстоит отправиться в путешествие во времени, полное неожиданностей и ярких открытий, чтобы спасти своего друга, Безумного Шляпника.
[img]https://rating.kinopoisk.ru/723988.gif[/img]
Тип релиза: BDRip 720p
Контейнер: MKV
Видео: MPEG-4 AVC, 7917 Кбит/с, 1280x690, 23,976 fps
Аудио: Rus, AC3, 384 kb/s (6 ch), 48 kHz
Аудио 2: Eng, DTS, 1510 kb/s (6 ch), 48 kHz
Формат субтитров: softsub (SRT)

MediaInfo

x264 [info]: frame I:1940 Avg QP:16.21 size:178389
x264 [info]: frame P:40148 Avg QP:17.01 size: 72053
x264 [info]: frame B:120420 Avg QP:18.23 size: 30322
Format : Matroska
Format version : Version 4 / Version 2
File size : 7.91 GiB
Duration : 1h 53mn
Overall bit rate : 10.0 Mbps
Movie name : Алиса в Зазеркалье. (Tonik)
Encoded date : UTC 2016-09-29 14:00:52
Writing application : mkvmerge v7.1.0 ('Good Love') 64bit built on Jul 27 2014 13:06:55
Writing library : libebml v1.3.0 + libmatroska v1.4.1
_STATISTICS_WRITING_APP : mkvmerge v7.1.0 ('Good Love') 64bit built on Jul 27 2014 13:06:55
_STATISTICS_WRITING_DATE_UTC : 2016-09-29 14:00:52
_STATISTICS_TAGS : BPS DURATION NUMBER_OF_FRAMES NUMBER_OF_BYTES
DURATION : 01:53:11.904000000
NUMBER_OF_FRAMES : 212247
NUMBER_OF_BYTES : 326011392
Video
ID : 1
Format : AVC
Format/Info : Advanced Video Codec
Format profile : High@L4.1
Format settings, CABAC : Yes
Format settings, ReFrames : 9 frames
Codec ID : V_MPEG4/ISO/AVC
Duration : 1h 53mn
Bit rate : 7 917 Kbps
Width : 1 280 pixels
Height : 690 pixels
Display aspect ratio : 1.85:1
Frame rate mode : Constant
Frame rate : 23.976 fps
Color space : YUV
Chroma subsampling : 4:2:0
Bit depth : 8 bits
Scan type : Progressive
Bits/(Pixel*Frame) : 0.374
Stream size : 6.26 GiB (79%)
Writing library : x264 core 148 r2597 e86f3a1
Encoding settings : cabac=1 / ref=9 / deblock=1:-3:-3 / analyse=0x3:0x113 / me=umh / subme=11 / psy=1 / psy_rd=1.00:0.00 / mixed_ref=1 / me_range=32 / chroma_me=1 / trellis=2 / 8x8dct=1 / cqm=0 / deadzone=21,11 / fast_pskip=0 / chroma_qp_offset=-2 / threads=22 / lookahead_threads=5 / sliced_threads=0 / nr=0 / decimate=0 / interlaced=0 / bluray_compat=0 / constrained_intra=0 / bframes=10 / b_pyramid=2 / b_adapt=2 / b_bias=0 / direct=3 / weightb=1 / open_gop=0 / weightp=2 / keyint=240 / keyint_min=24 / scenecut=40 / intra_refresh=0 / rc_lookahead=40 / rc=crf / mbtree=0 / crf=16.7 / qcomp=0.70 / qpmin=0 / qpmax=69 / qpstep=4 / vbv_maxrate=40000 / vbv_bufsize=30000 / crf_max=0.0 / nal_hrd=none / filler=0 / ip_ratio=1.20 / pb_ratio=1.20 / aq=3:0.85
Language : English
Default : Yes
Forced : No
_STATISTICS_WRITING_APP : mkvmerge v7.1.0 ('Good Love') 64bit built on Jul 27 2014 13:06:55
_STATISTICS_WRITING_DATE_UTC : 2016-09-29 14:00:52
_STATISTICS_TAGS : BPS DURATION NUMBER_OF_FRAMES NUMBER_OF_BYTES
DURATION : 01:52:57.938000000
NUMBER_OF_FRAMES : 162508
NUMBER_OF_BYTES : 6890254413
Audio #1
ID : 2
Format : AC-3
Format/Info : Audio Coding 3
Mode extension : CM (complete main)
Format settings, Endianness : Big
Codec ID : A_AC3
Duration : 1h 53mn
Bit rate mode : Constant
Bit rate : 384 Kbps
Channel(s) : 6 channels
Channel positions : Front: L C R, Side: L R, LFE
Sampling rate : 48.0 KHz
Bit depth : 16 bits
Compression mode : Lossy
Stream size : 311 MiB (4%)
Title : iTunes
Language : Russian
Default : Yes
Forced : No
Audio #2
ID : 3
Format : DTS
Format/Info : Digital Theater Systems
Mode : 16
Format settings, Endianness : Big
Codec ID : A_DTS
Duration : 1h 53mn
Bit rate mode : Constant
Bit rate : 1 509 Kbps
Channel(s) : 6 channels
Channel positions : Front: L C R, Side: L R, LFE
Sampling rate : 48.0 KHz
Bit depth : 24 bits
Compression mode : Lossy
Stream size : 1.19 GiB (15%)
Language : English
Default : No
Forced : No
Text #1
ID : 4
Format : UTF-8
Codec ID : S_TEXT/UTF8
Codec ID/Info : UTF-8 Plain Text
Title : Forced
Language : Russian
Default : Yes
Forced : No
Text #2
ID : 5
Format : UTF-8
Codec ID : S_TEXT/UTF8
Codec ID/Info : UTF-8 Plain Text
Language : Russian
Default : No
Forced : No
Text #3
ID : 6
Format : UTF-8
Codec ID : S_TEXT/UTF8
Codec ID/Info : UTF-8 Plain Text
Title : Forced
Language : English
Default : No
Forced : No
Text #4
ID : 7
Format : UTF-8
Codec ID : S_TEXT/UTF8
Codec ID/Info : UTF-8 Plain Text
Language : English
Default : No
Forced : No
Menu
00:00:00.000 : en:Navigating The Wonder
00:04:32.000 : en:Return Home
00:07:24.000 : en:Canceled Plans
00:12:07.000 : en:Through The Looking Glass
00:16:39.000 : en:Old Friends
00:22:47.000 : en:Chronosphere
00:24:59.000 : en:Time's Castle
00:30:17.000 : en:The Grand Clock
00:35:30.000 : en:Arrival Of The Red Queen
00:41:32.000 : en:Ocean Of Time
00:45:20.000 : en:Coronation
00:51:35.000 : en:Warning The Hatter
00:54:11.000 : en:Tea Party With Time
00:57:40.000 : en:Tart Trouble
01:04:18.000 : en:"The Stroke Of Six"
01:09:18.000 : en:Escape From The Asylum
01:12:45.000 : en:Horunvendush Day
01:18:07.000 : en:Red Queen's Lair
01:23:20.000 : en:Changing The Past
01:27:34.000 : en:Running Out Of Time
01:32:16.000 : en:Family Reunion
01:36:40.000 : en:Goodbyes
01:40:13.000 : en:Setting Sail
01:43:14.000 : en:End Credits

Скриншоты


_________________
Показать сообщения:    

Текущее время: Сегодня 09:25

Часовой пояс: GMT



Вы не можете начинать темы
Вы не можете отвечать на сообщения
Вы не можете редактировать свои сообщения
Вы не можете удалять свои сообщения
Вы не можете голосовать в опросах
Вы не можете прикреплять файлы к сообщениям
Вы не можете скачивать файлы