Важное объявление!
У Нас Все раздачи мультитрекерные, при нуле пиров в релизах, можете смело вставать на закачку!
 
Автор Сообщение

HUNTER

Стаж:
4 года 4 месяца
Сообщений:
56842

Репутация: 101

[+] [-]
Вне форума [Профиль] [ЛС]

Алеша Попович и Тугарин Змей--
Год выпуска: 2004
Страна: Россия
Жанр: мультфильм, мюзикл, комедия
Продолжительность: 01:18:51
Русские субтитры: нет-Режиссер: Константин Бронзит-Роли озвучивали:
Олег Куликович (Алеша Попович, озвучка), Лия Медведева (Любава, озвучка), Дмитрий Высоцкий (конь Юлий, озвучка), Анатолий Петров (Тихон, озвучка), Наталья Данилова (Бабушка, озвучка), Сергей Маковецкий (Князь Киевский, озвучка), Иван Краско (Святогор, озвучка), Татьяна Иванова (Мать, озвучка), Михаил Черняк (Авторский текст / Ослик Моисей, озвучка), Константин Бронзит (Тугарин, озвучка), Елена Шульман (цыганка, озвучка)-Описание:
В древнем русском городе Ростове родился в поповской семье сын. Назвали его родители Алешей. А когда он вырос и стал богатырем, то совершил такие подвиги, что стал героем русских былин Алешей Поповичем. Только подвиги его начались с конфуза…
Подступила к Ростову тугарская вражеская орда во главе с Тугарином Змеем и потребовала, чтобы жители города выплатили дань. Поповский сын предложил план действий. Народ этот план одобрил и собрал гору золота. Алеша же умудрился собственный план «благополучно» провалить, да с каким треском!
И золото упустил, и полгорода разрушил. После чего поклялся — Тугарина Змея изловить и золото вернуть. Отправился Алеша Попович в путь вместе с дедом Тихоном, который мальчика вырастил и воспитал, а чуть позже компанию им составили говорящий конь Юлий, купленный у цыган, почти 16-летняя красавица Любава, ее бабка и их ослик Моисей…-Доп. информация: Kinopoisk.ru | Sample |-Качество: BDRip-AVC
Контейнер: MKV
Видео кодек: H.264
Аудио кодек: AС3
Видео: H.264, 1280x690 (1.855), ~ 3097 kbps, 23,976 fps, Bits/(Pixel*Frame): 0,146, VBR
Аудио: Русский: 48 kHz, AC3, 3/2 (L,C,R,l,r) + LFE ch, ~ 640.00 kbps

Скриншоты

Rip vs Sourse -Rip vs Sourse

MediaInfo | x264

x264

x264 [info]: frame I:1091 Avg QP: 9.61 size:166502x264 [info]: frame P:31576 Avg QP:12.82 size: 31742x264 [info]: frame B:80655 Avg QP:16.88 size: 8010x264 [info]: consecutive B-frames: 6.0% 4.7% 13.0% 41.4% 14.2% 8.6% 3.3% 3.9% 4.9%x264 [info]: mb I I16..4: 22.6% 19.7% 57.7%x264 [info]: mb P I16..4: 1.7% 1.8% 3.3% P16..4: 16.3% 10.0% 7.2% 0.0% 0.0% skip:59.8%x264 [info]: mb B I16..4: 0.3% 0.2% 0.4% B16..8: 12.2% 5.1% 2.0% direct: 1.5% skip:78.1% L0:47.9% L1:42.7% BI: 9.5%x264 [info]: 8x8 transform intra:23.2% inter:18.1%x264 [info]: direct mvs spatial:92.4% temporal:7.6%x264 [info]: coded y,uvDC,uvAC intra: 51.0% 64.3% 60.1% inter: 7.2% 9.5% 8.5%x264 [info]: i16 v,h,dc,p: 70% 20% 5% 4%x264 [info]: i8 v,h,dc,ddl,ddr,vr,hd,vl,hu: 16% 21% 23% 6% 6% 6% 7% 6% 10%x264 [info]: i4 v,h,dc,ddl,ddr,vr,hd,vl,hu: 21% 17% 20% 6% 8% 7% 7% 6% 8%x264 [info]: i8c dc,h,v,p: 39% 39% 16% 6%x264 [info]: Weighted P-Frames: Y:0.9% UV:0.6%x264 [info]: ref P L0: 56.7% 7.0% 14.8% 7.1% 4.9% 3.6% 2.8% 1.7% 1.1% 0.3% 0.0%x264 [info]: ref B L0: 65.9% 18.4% 7.4% 3.4% 2.2% 1.4% 0.8% 0.4%x264 [info]: ref B L1: 89.8% 10.2%x264 [info]: kb/s:3097.43
GeneralUnique ID : 201727036772470686769782253975418209426 (0x97C336CD5FC77108B7A96F9533148492)Complete name : Bogatiri 720p\Alesha.Popovich.I.Tugarin.Zmey.BDRip.720.barm.mkvFormat : MatroskaFormat version : Version 2File size : 2.06 GiBDuration : 1h 18mnOverall bit rate : 3 737 KbpsMovie name : Алеша Попович и Тугарин Змей 2004Encoded date : UTC 2012-02-29 14:47:04Writing application : mkvmerge v5.3.0 ('I could have danced') built on Feb 9 2012 10:38:07Writing library : libebml v1.2.3 + libmatroska v1.3.0Attachment : Yes
VideoID : 1Format : AVCFormat/Info : Advanced Video CodecFormat profile : High@L4.1Format settings, CABAC : YesFormat settings, ReFrames : 9 framesCodec ID : V_MPEG4/ISO/AVCDuration : 1h 18mnBit rate : 3 097 KbpsWidth : 1 280 pixelsHeight : 690 pixelsDisplay aspect ratio : 1.855Frame rate : 23.976 fpsColor space : YUVChroma subsampling : 4:2:0Bit depth : 8 bitsScan type : ProgressiveBits/(Pixel*Frame) : 0.146Stream size : 1.66 GiB (81%)Title : Алеша Попович и Тугарин ЗмейWriting library : x264 core 120 r2164 da19765Encoding settings : cabac=1 / ref=9 / deblock=1:-1:-1 / analyse=0x3:0x113 / me=umh / subme=11 / psy=1 / psy_rd=0.70:0.00 / mixed_ref=1 / me_range=32 / chroma_me=1 / trellis=2 / 8x8dct=1 / cqm=0 / deadzone=21,11 / fast_pskip=0 / chroma_qp_offset=-2 / threads=6 / sliced_threads=0 / nr=0 / decimate=0 / interlaced=0 / bluray_compat=0 / constrained_intra=0 / bframes=8 / b_pyramid=2 / b_adapt=2 / b_bias=0 / direct=3 / weightb=1 / open_gop=0 / weightp=2 / keyint=250 / keyint_min=23 / scenecut=40 / intra_refresh=0 / rc_lookahead=60 / rc=2pass / mbtree=1 / bitrate=3097 / ratetol=1.0 / qcomp=0.70 / qpmin=0 / qpmax=69 / qpstep=4 / cplxblur=20.0 / qblur=0.5 / vbv_maxrate=50000 / vbv_bufsize=62500 / nal_hrd=none / ip_ratio=1.10 / aq=2:0.70Language : RussianDefault : YesForced : NoMatrix coefficients : BT.709-5, BT.1361, IEC 61966-2-4 709, SMPTE RP177
AudioID : 2Format : AC-3Format/Info : Audio Coding 3Mode extension : CM (complete main)Codec ID : A_AC3Duration : 1h 18mnBit rate mode : ConstantBit rate : 640 KbpsChannel(s) : 6 channelsChannel positions : Front: L C R, Side: L R, LFESampling rate : 48.0 KHzBit depth : 16 bitsCompression mode : LossyStream size : 361 MiB (17%)Title : 48 kHz, AC3, 3/2 (L,C,R,l,r) + LFE ch, ~ 640.00 kbpsLanguage : RussianDefault : YesForced : No

-
-Добрыня Никитич и Змей Горыныч--
Год выпуска: 2006
Страна: Россия
Жанр: мультфильм, фэнтези, комедия, приключения
Продолжительность: 01:08:08
Русские субтитры: нет-Режиссер: Илья Максимов-Роли озвучивали:
Валерий Соловьев (Добрыня Никитич, озвучка), Юрий Тарасов (Елисей, озвучка), Сергей Маковецкий (Князь Киевский, озвучка), Андрей Толубеев (Купец Колыван, озвучка), Екатерина Гороховская (Забава Путятична, озвучка), Олег Куликович (Змей Горыныч, озвучка), Анатолий Петров (Бекет - Крымский Хан, озвучка), Наталья Данилова (Баба Яга, озвучка)-Описание:
Пока храбрый воин Добрыня Никитич собирал с тугар дань, в Киеве похитили любимую племянницу князя — Забаву Путятичну. Вопреки воле князя, Добрыня с женихом Забавы Елисеем отправляется на ее поиски. В пути их ждет много приключений…-Доп. информация: Kinopoisk.ru | Sample |-Качество: BDRip-AVC
Контейнер: MKV
Видео кодек: H.264
Аудио кодек: AС3
Видео: H.264, 1280x690 (1.855), ~ 3870 kbps, 23,976 fps, Bits/(Pixel*Frame): 0,183, VBR
Аудио: Русский: 48 kHz, AC3, 3/2 (L,C,R,l,r) + LFE ch, ~ 640.00 kbps

Скриншоты

Rip vs Sourse -Rip vs Sourse

MediaInfo | x264

x264

x264 [info]: frame I:1101 Avg QP: 9.29 size:183813x264 [info]: frame P:27603 Avg QP:12.49 size: 36509x264 [info]: frame B:69318 Avg QP:16.46 size: 11075x264 [info]: consecutive B-frames: 6.2% 3.9% 15.1% 42.4% 15.7% 6.4% 2.0% 4.3% 1.7% 2.2%x264 [info]: mb I I16..4: 16.2% 24.6% 59.1%x264 [info]: mb P I16..4: 1.9% 3.0% 4.7% P16..4: 15.3% 10.7% 7.8% 0.0% 0.0% skip:56.6%x264 [info]: mb B I16..4: 0.5% 0.5% 0.7% B16..8: 12.8% 6.7% 2.7% direct: 1.9% skip:74.2% L0:48.3% L1:41.5% BI:10.2%x264 [info]: 8x8 transform intra:29.6% inter:19.9%x264 [info]: direct mvs spatial:93.8% temporal:6.2%x264 [info]: coded y,uvDC,uvAC intra: 57.7% 69.0% 64.2% inter: 9.3% 10.8% 9.2%x264 [info]: i16 v,h,dc,p: 66% 22% 5% 7%x264 [info]: i8 v,h,dc,ddl,ddr,vr,hd,vl,hu: 15% 24% 20% 6% 6% 6% 7% 7% 11%x264 [info]: i4 v,h,dc,ddl,ddr,vr,hd,vl,hu: 21% 16% 18% 7% 8% 7% 7% 7% 9%x264 [info]: i8c dc,h,v,p: 40% 37% 17% 6%x264 [info]: Weighted P-Frames: Y:1.7% UV:1.2%x264 [info]: ref P L0: 56.8% 7.4% 14.6% 7.4% 5.1% 3.8% 2.9% 1.7% 0.4% 0.0%x264 [info]: ref B L0: 65.5% 18.9% 7.9% 3.6% 2.2% 1.2% 0.6%x264 [info]: ref B L1: 91.2% 8.8%x264 [info]: kb/s:3870.14
GeneralUnique ID : 224338945635231618005360314829791206361 (0xA8C61BFBAEA343978C21CA056F369BD9)Complete name : Bogatiri 720p\Dobrynya.Nikitich.i.Zmey.Gorynych.720.barm.mkvFormat : MatroskaFormat version : Version 2File size : 2.15 GiBDuration : 1h 8mnOverall bit rate : 4 512 KbpsMovie name : Добрыня Никитич и Змей Горыныч 2006Encoded date : UTC 2012-03-02 16:00:09Writing application : mkvmerge v5.3.0 ('I could have danced') built on Feb 9 2012 10:38:07Writing library : libebml v1.2.3 + libmatroska v1.3.0Attachment : Yes
VideoID : 1Format : AVCFormat/Info : Advanced Video CodecFormat profile : High@L4.1Format settings, CABAC : YesFormat settings, ReFrames : 8 framesCodec ID : V_MPEG4/ISO/AVCDuration : 1h 8mnBit rate : 3 870 KbpsWidth : 1 280 pixelsHeight : 690 pixelsDisplay aspect ratio : 1.855Frame rate : 23.976 fpsColor space : YUVChroma subsampling : 4:2:0Bit depth : 8 bitsScan type : ProgressiveBits/(Pixel*Frame) : 0.183Stream size : 1.80 GiB (84%)Title : Добрыня Никитич и Змей ГорынычWriting library : x264 core 120 r2164 da19765Encoding settings : cabac=1 / ref=8 / deblock=1:-1:-1 / analyse=0x3:0x113 / me=umh / subme=11 / psy=1 / psy_rd=0.70:0.00 / mixed_ref=1 / me_range=32 / chroma_me=1 / trellis=2 / 8x8dct=1 / cqm=0 / deadzone=21,11 / fast_pskip=0 / chroma_qp_offset=-2 / threads=6 / sliced_threads=0 / nr=0 / decimate=0 / interlaced=0 / bluray_compat=0 / constrained_intra=0 / bframes=9 / b_pyramid=2 / b_adapt=2 / b_bias=0 / direct=3 / weightb=1 / open_gop=0 / weightp=2 / keyint=250 / keyint_min=23 / scenecut=40 / intra_refresh=0 / rc_lookahead=60 / rc=2pass / mbtree=1 / bitrate=3870 / ratetol=1.0 / qcomp=0.70 / qpmin=0 / qpmax=69 / qpstep=4 / cplxblur=20.0 / qblur=0.5 / vbv_maxrate=50000 / vbv_bufsize=62500 / nal_hrd=none / ip_ratio=1.10 / aq=2:0.70Language : RussianDefault : YesForced : NoMatrix coefficients : BT.709-5, BT.1361, IEC 61966-2-4 709, SMPTE RP177
AudioID : 2Format : AC-3Format/Info : Audio Coding 3Mode extension : CM (complete main)Codec ID : A_AC3Duration : 1h 8mnBit rate mode : ConstantBit rate : 640 KbpsChannel(s) : 6 channelsChannel positions : Front: L C R, Side: L R, LFESampling rate : 48.0 KHzBit depth : 16 bitsCompression mode : LossyStream size : 312 MiB (14%)Title : 48 kHz, AC3, 3/2 (L,C,R,l,r) + LFE ch, ~ 640.00 kbpsLanguage : RussianDefault : YesForced : No

-
-Илья Муромец и Соловей Разбойник--
Год выпуска: 2007
Страна: Россия
Жанр: мультфильм, комедия, приключения
Продолжительность: 01:19:31
Русские субтитры: нет-Режиссер: Владимир Торопчин-Роли озвучивали:
(Василевс, Император Византийский, озвучка), Екатерина Гороховская (Алёнушка, озвучка), Валерий Соловьев (Илья Муромец, озвучка), Сергей Маковецкий (Князь Киевский, озвучка), Анатолий Петров (Пройдоха / Погонщик Коня, озвучка), Андрей Толубеев (Соловей-разбойник, озвучка), Олег Куликович (бандит, озвучка), Юрий Тарасов (Помомщник Василевса, озвучка), Наталья Данилова (Мама Ильи / Византийская бабушка, озвучка)-Описание:
Славится земля русская богатырями богатырскими да разбойниками разбойничьими…
А сверху всего князь княжеский сидит, за всем следит и порядок наводит, если нужно. Да только не всегда выходит у князя так, как нужно — правильно.
Вот и сейчас — с богатырём поругался да от Соловья Разбойника урон потерпел немалый: увёл бандит окаянный казну государственную прямо из-под носа!
Что делать князю? А ничего особенного — на то он и князь, чтоб из любой ситуации выход найти! Вот и отправились князь с Ильёй на поиски похищенного, а за ними вслед увязалась корреспондентка летописи «Новая береста».
А дорога непростая выдалась, до самого Царьграда довела, где встретил их Император Византийский, да только незадача вышла — повздорили наши герои с императором этим, и заключил он против Князя Киевского и Земель русских союз с Соловьем Разбойником…-Доп. информация: Kinopoisk.ru | Sample |-Качество: BDRip-AVC
Контейнер: MKV
Видео кодек: H.264
Аудио кодек: AС3
Видео: H.264, 1280x692 (1.850), ~ 3164 kbps, 23,976 fps, Bits/(Pixel*Frame): 0,149, VBR
Аудио: Русский: 48 kHz, AC3, 3/2 (L,C,R,l,r) + LFE ch, ~ 640.00 kbps

Скриншоты

Rip vs Sourse -Rip vs Sourse

MediaInfo | x264

x264

x264 [info]: frame I:1408 Avg QP:10.79 size:200412x264 [info]: frame P:32234 Avg QP:14.12 size: 30425x264 [info]: frame B:80750 Avg QP:17.87 size: 7731x264 [info]: consecutive B-frames: 5.9% 3.5% 13.1% 50.1% 15.0% 7.1% 1.9% 1.4% 1.9%x264 [info]: mb I I16..4: 14.2% 27.7% 58.1%x264 [info]: mb P I16..4: 1.4% 2.2% 3.1% P16..4: 15.6% 10.1% 7.5% 0.0% 0.0% skip:60.0%x264 [info]: mb B I16..4: 0.3% 0.3% 0.4% B16..8: 11.9% 5.3% 2.1% direct: 1.8% skip:77.8% L0:46.8% L1:42.4% BI:10.7%x264 [info]: 8x8 transform intra:31.1% inter:22.2%x264 [info]: direct mvs spatial:94.6% temporal:5.4%x264 [info]: coded y,uvDC,uvAC intra: 59.9% 70.5% 65.1% inter: 7.8% 9.5% 8.0%x264 [info]: i16 v,h,dc,p: 72% 17% 5% 6%x264 [info]: i8 v,h,dc,ddl,ddr,vr,hd,vl,hu: 13% 26% 17% 6% 6% 5% 8% 6% 13%x264 [info]: i4 v,h,dc,ddl,ddr,vr,hd,vl,hu: 21% 19% 18% 6% 8% 6% 7% 6% 9%x264 [info]: i8c dc,h,v,p: 40% 38% 16% 6%x264 [info]: Weighted P-Frames: Y:1.7% UV:1.1%x264 [info]: ref P L0: 55.2% 8.7% 14.4% 7.0% 4.9% 3.7% 2.8% 1.8% 1.2% 0.3% 0.0%x264 [info]: ref B L0: 67.9% 17.2% 7.0% 3.2% 2.1% 1.4% 0.9% 0.4%x264 [info]: ref B L1: 91.8% 8.2%x264 [info]: kb/s:3164.40
GeneralUnique ID : 225042691569148900038072204793846255707 (0xA94DA556275EA9F6862BFCED9FA1505B)Complete name : Bogatiri 720p\Ilya.Muromets.i.Solovey.Razboynik.BDRip.720.barm.mkvFormat : MatroskaFormat version : Version 2File size : 2.11 GiBDuration : 1h 19mnOverall bit rate : 3 807 KbpsMovie name : Илья Муромец и Соловей Разбойник 2007Encoded date : UTC 2012-03-04 14:20:01Writing application : mkvmerge v5.3.0 ('I could have danced') built on Feb 9 2012 10:38:07Writing library : libebml v1.2.3 + libmatroska v1.3.0Attachment : Yes
VideoID : 1Format : AVCFormat/Info : Advanced Video CodecFormat profile : High@L4.1Format settings, CABAC : YesFormat settings, ReFrames : 9 framesCodec ID : V_MPEG4/ISO/AVCDuration : 1h 19mnBit rate : 3 164 KbpsWidth : 1 280 pixelsHeight : 692 pixelsDisplay aspect ratio : 1.850Frame rate : 23.976 fpsColor space : YUVChroma subsampling : 4:2:0Bit depth : 8 bitsScan type : ProgressiveBits/(Pixel*Frame) : 0.149Stream size : 1.72 GiB (81%)Title : Илья Муромец и Соловей РазбойникWriting library : x264 core 120 r2164 da19765Encoding settings : cabac=1 / ref=9 / deblock=1:-1:-1 / analyse=0x3:0x113 / me=umh / subme=11 / psy=1 / psy_rd=0.70:0.00 / mixed_ref=1 / me_range=32 / chroma_me=1 / trellis=2 / 8x8dct=1 / cqm=0 / deadzone=21,11 / fast_pskip=0 / chroma_qp_offset=-2 / threads=6 / sliced_threads=0 / nr=0 / decimate=0 / interlaced=0 / bluray_compat=0 / constrained_intra=0 / bframes=8 / b_pyramid=2 / b_adapt=2 / b_bias=0 / direct=3 / weightb=1 / open_gop=0 / weightp=2 / keyint=250 / keyint_min=23 / scenecut=40 / intra_refresh=0 / rc_lookahead=60 / rc=2pass / mbtree=1 / bitrate=3164 / ratetol=1.0 / qcomp=0.70 / qpmin=0 / qpmax=69 / qpstep=4 / cplxblur=20.0 / qblur=0.5 / vbv_maxrate=50000 / vbv_bufsize=62500 / nal_hrd=none / ip_ratio=1.10 / aq=2:0.70Language : RussianDefault : YesForced : NoMatrix coefficients : BT.709-5, BT.1361, IEC 61966-2-4 709, SMPTE RP177
AudioID : 2Format : AC-3Format/Info : Audio Coding 3Mode extension : CM (complete main)Codec ID : A_AC3Duration : 1h 19mnBit rate mode : ConstantBit rate : 640 KbpsChannel(s) : 6 channelsChannel positions : Front: L C R, Side: L R, LFESampling rate : 48.0 KHzBit depth : 16 bitsCompression mode : LossyStream size : 364 MiB (17%)Title : 48 kHz, AC3, 3/2 (L,C,R,l,r) + LFE ch, ~ 640.00 kbpsLanguage : RussianDefault : YesForced : No

-
-Три богатыря и Шамаханская царица--
Год выпуска: 2010
Страна: Россия
Жанр: мультфильм, фэнтези, комедия, приключения
Продолжительность: 01:16:32
Русские субтитры: нет-Режиссер: Сергей Глезин-Роли озвучивали:
Дмитрий Быковский-Ромашов (Илья Муромец, озвучка), Валерий Соловьев (Добрыня Никитич, озвучка), Олег Куликович (Алеша Попович / Змей Горыныч, озвучка), Сергей Маковецкий (князь Киевский, озвучка), Анна Геллер (Шамаханская царица, озвучка), Дмитрий Высоцкий (конь Юлий, озвучка), Константин Бронзит (ворон, озвучка), Мария Цветкова-Овсянникова (Аленушка, озвучка), Елена Шульман (Настасья, озвучка), Лия Медведева (Любава, озвучка), Игорь Шибанов (советник, озвучка), Анатолий Петров (Тихон / сэнсэй, озвучка)--Описание:
Легендарная Шамаханская царица, которая сводила с ума многих царей и простых смертных, положила свой глаз и на Киевского князя.
Тот заболел любовью странной по ней. Но чтобы доставить в целости и сохранности эту чудо-богиню в Киев-Град, срочно из отпуска вызывают всех троих, уже знакомых нам, богатырей: Алёшу Поповича, Добрыню Никитича и Илью Муромца.
Теперь троица должна решить, как быть дальше? Вроде бы и слухи о царице ходят нелестные, и князя жаль.-Доп. информация: Kinopoisk.ru | Sample |-Качество: BDRip-AVC
Контейнер: MKV
Видео кодек: H.264
Аудио кодек: AС3
Видео: H.264, 1280x720 (1.850), ~ 2898 kbps, 24 fps, Bits/(Pixel*Frame): 0,131, VBR
Аудио: Русский: 48 kHz, AC3, 3/2 (L,C,R,l,r) + LFE ch, ~ 640.00 kbps

Скриншоты

Rip vs Sourse -Rip vs Sourse

MediaInfo | x264

x264

x264 [info]: frame I:1087 Avg QP: 9.66 size:204967x264 [info]: frame P:31129 Avg QP:12.91 size: 30113x264 [info]: frame B:77993 Avg QP:17.32 size: 6453x264 [info]: consecutive B-frames: 6.8% 3.9% 11.9% 43.8% 12.8% 10.2% 2.8% 3.6% 4.1%x264 [info]: mb I I16..4: 10.6% 44.3% 45.1%x264 [info]: mb P I16..4: 1.2% 3.5% 2.6% P16..4: 18.7% 12.1% 8.2% 0.0% 0.0% skip:53.7%x264 [info]: mb B I16..4: 0.3% 0.4% 0.3% B16..8: 15.2% 6.2% 1.9% direct: 1.7% skip:74.0% L0:47.9% L1:43.3% BI: 8.9%x264 [info]: 8x8 transform intra:45.7% inter:25.1%x264 [info]: direct mvs spatial:95.4% temporal:4.6%x264 [info]: coded y,uvDC,uvAC intra: 64.6% 68.8% 59.8% inter: 7.8% 9.9% 8.1%x264 [info]: i16 v,h,dc,p: 58% 23% 7% 12%x264 [info]: i8 v,h,dc,ddl,ddr,vr,hd,vl,hu: 17% 19% 20% 6% 6% 6% 7% 7% 11%x264 [info]: i4 v,h,dc,ddl,ddr,vr,hd,vl,hu: 18% 16% 15% 8% 9% 8% 8% 8% 9%x264 [info]: i8c dc,h,v,p: 40% 36% 17% 7%x264 [info]: Weighted P-Frames: Y:1.6% UV:1.1%x264 [info]: ref P L0: 57.6% 9.7% 13.3% 6.3% 4.4% 3.3% 2.6% 1.5% 1.1% 0.2% 0.0%x264 [info]: ref B L0: 68.3% 18.4% 6.6% 2.8% 1.8% 1.1% 0.6% 0.3%x264 [info]: ref B L1: 90.9% 9.1%x264 [info]: kb/s:2898.08
GeneralUnique ID : 199515732286832882485024231143605886302 (0x96195512D78C4E078A0D48E156D55D5E)Complete name : Bogatiri 720p\Tri.Bogatyrya.i.Shamakhanskaya.Tsaritsa.BDRip.720.barm.mkvFormat : MatroskaFormat version : Version 2File size : 1.89 GiBDuration : 1h 16mnOverall bit rate : 3 541 KbpsMovie name : Три богатыря и Шамаханская царица 2010Encoded date : UTC 2012-03-04 16:04:32Writing application : mkvmerge v5.3.0 ('I could have danced') built on Feb 9 2012 10:38:07Writing library : libebml v1.2.3 + libmatroska v1.3.0Attachment : Yes
VideoID : 1Format : AVCFormat/Info : Advanced Video CodecFormat profile : High@L4.1Format settings, CABAC : YesFormat settings, ReFrames : 9 framesCodec ID : V_MPEG4/ISO/AVCDuration : 1h 16mnBit rate : 2 898 KbpsWidth : 1 280 pixelsHeight : 720 pixelsDisplay aspect ratio : 16:9Frame rate : 24.000 fpsColor space : YUVChroma subsampling : 4:2:0Bit depth : 8 bitsScan type : ProgressiveBits/(Pixel*Frame) : 0.131Stream size : 1.51 GiB (80%)Title : Три богатыря и Шамаханская царицаWriting library : x264 core 120 r2164 da19765Encoding settings : cabac=1 / ref=9 / deblock=1:-1:-1 / analyse=0x3:0x113 / me=umh / subme=11 / psy=1 / psy_rd=0.70:0.00 / mixed_ref=1 / me_range=32 / chroma_me=1 / trellis=2 / 8x8dct=1 / cqm=0 / deadzone=21,11 / fast_pskip=0 / chroma_qp_offset=-2 / threads=6 / sliced_threads=0 / nr=0 / decimate=0 / interlaced=0 / bluray_compat=0 / constrained_intra=0 / bframes=8 / b_pyramid=2 / b_adapt=2 / b_bias=0 / direct=3 / weightb=1 / open_gop=0 / weightp=2 / keyint=250 / keyint_min=24 / scenecut=40 / intra_refresh=0 / rc_lookahead=60 / rc=2pass / mbtree=1 / bitrate=2898 / ratetol=1.0 / qcomp=0.70 / qpmin=0 / qpmax=69 / qpstep=4 / cplxblur=20.0 / qblur=0.5 / vbv_maxrate=50000 / vbv_bufsize=62500 / nal_hrd=none / ip_ratio=1.10 / aq=2:0.70Language : RussianDefault : YesForced : NoMatrix coefficients : BT.709-5, BT.1361, IEC 61966-2-4 709, SMPTE RP177
AudioID : 2Format : AC-3Format/Info : Audio Coding 3Mode extension : CM (complete main)Codec ID : A_AC3Duration : 1h 16mnBit rate mode : ConstantBit rate : 640 KbpsChannel(s) : 6 channelsChannel positions : Front: L C R, Side: L R, LFESampling rate : 48.0 KHzBit depth : 16 bitsCompression mode : LossyStream size : 350 MiB (18%)Title : 48 kHz, AC3, 3/2 (L,C,R,l,r) + LFE ch, ~ 640.00 kbpsLanguage : RussianDefault : YesForced : No

-
-Иван Царевич и Серый Волк--
Год выпуска: 2011
Страна: Россия (Мельница, СТВ)
Жанр: мультфильм, комедия, приключения, семейный
Продолжительность: 01:25:58
Перевод: не требуется
Русские субтитры: нет
Навигация по главам: есть-Режиссер: Владимир Торопчин-Роли озвучивали: Никита Ефремов (Иван, озвучка), Иван Охлобыстин (царь, озвучка),Артур Смольянинов (волк, озвучка), Лия Ахеджакова (Баба Яга, озвучка),Кристина Асмус (белка, озвучка), Виктор Сухоруков (первый министр, озвучка),Сергей Гармаш (Змей Горыныч, озвучка), Михаил Боярский (ученый кот, озвучка),Татьяна Бунина (Василиса, озвучка), Сергей Русскин (Кощей Бессмертный, озвучка),Елена Шульман (русалка, озвучка), Константин Бронзит (царь-император, озвучка)-Описание: Увлекательная история от создателей богатырской трилогии, в которой героев русских народных сказок ждут новые приключения, опасности и забавные ситуации.-Доп. информация: Kinopoisk.ru | Sample | -Качество: BDRip 720p
Контейнер: MKV
Видео кодек: H.264
Аудио кодек: AС3
Видео: H.264, 1280x690, 23.976 fps, ~ 2740 kbps, Bits/(Pixel*Frame): 0,129, VBR
Аудио: Русский: 48 kHz, AC3, 3/2 (L,C,R,l,r) + LFE ch, ~ 640.00 kbps

Скриншоты

- -Rip vs Sourse -Rip vs Sourse

MediaInfo | x264

x264

x264 [info]: frame I:1476 Avg QP: 8.12 size:219182x264 [info]: frame P:34994 Avg QP:11.75 size: 26279x264 [info]: frame B:87202 Avg QP:16.45 size: 6005x264 [info]: consecutive B-frames: 6.0% 5.7% 13.1% 42.4% 15.1% 9.7% 2.6% 2.6% 2.7%x264 [info]: mb I I16..4: 11.0% 37.7% 51.2%x264 [info]: mb P I16..4: 0.6% 2.2% 2.2% P16..4: 16.8% 9.2% 6.8% 0.0% 0.0% skip:62.2%x264 [info]: mb B I16..4: 0.1% 0.2% 0.3% B16..8: 12.0% 4.7% 1.7% direct: 1.3% skip:79.6% L0:48.0% L1:43.2% BI: 8.8%x264 [info]: 8x8 transform intra:40.4% inter:20.9%x264 [info]: direct mvs spatial:93.4% temporal:6.6%x264 [info]: coded y,uvDC,uvAC intra: 72.8% 77.5% 72.7% inter: 6.6% 8.0% 7.0%x264 [info]: i16 v,h,dc,p: 59% 18% 9% 14%x264 [info]: i8 v,h,dc,ddl,ddr,vr,hd,vl,hu: 19% 20% 18% 6% 6% 6% 7% 7% 11%x264 [info]: i4 v,h,dc,ddl,ddr,vr,hd,vl,hu: 22% 14% 15% 7% 9% 8% 8% 8% 9%x264 [info]: i8c dc,h,v,p: 42% 31% 19% 8%x264 [info]: Weighted P-Frames: Y:0.8% UV:0.6%x264 [info]: ref P L0: 59.0% 10.3% 13.1% 6.1% 4.0% 2.9% 2.1% 1.3% 0.9% 0.2% 0.0%x264 [info]: ref B L0: 69.4% 18.6% 6.2% 2.5% 1.5% 1.0% 0.6% 0.2%x264 [info]: ref B L1: 92.2% 7.8%x264 [info]: kb/s:2740.12
GeneralUnique ID : 174032551627664131941988783139441057225 (0x82ED73437051A152BE378A7B90BB9DC9)Complete name : Ivan.Carevich.I.Serij.Volk.720p.barm.mkvFormat : MatroskaFormat version : Version 2File size : 2.03 GiBDuration : 1h 25mnOverall bit rate : 3 382 KbpsMovie name : Иван Царевич и Серый Волк 2011Encoded date : UTC 2012-02-20 16:05:12Writing application : mkvmerge v5.3.0 ('I could have danced') built on Feb 9 2012 10:38:07Writing library : libebml v1.2.3 + libmatroska v1.3.0Attachment : Yes
VideoID : 1Format : AVCFormat/Info : Advanced Video CodecFormat profile : High@L4.1Format settings, CABAC : YesFormat settings, ReFrames : 9 framesCodec ID : V_MPEG4/ISO/AVCDuration : 1h 25mnBit rate : 2 740 KbpsWidth : 1 280 pixelsHeight : 690 pixelsDisplay aspect ratio : 1.855Frame rate : 23.976 fpsColor space : YUVChroma subsampling : 4:2:0Bit depth : 8 bitsScan type : ProgressiveBits/(Pixel*Frame) : 0.129Stream size : 1.61 GiB (79%)Title : Иван Царевич и Серый ВолкWriting library : x264 core 120 r2164 da19765Encoding settings : cabac=1 / ref=9 / deblock=1:-1:-1 / analyse=0x3:0x113 / me=umh / subme=11 / psy=1 / psy_rd=0.80:0.00 / mixed_ref=1 / me_range=32 / chroma_me=1 / trellis=2 / 8x8dct=1 / cqm=0 / deadzone=21,11 / fast_pskip=0 / chroma_qp_offset=-2 / threads=6 / sliced_threads=0 / nr=0 / decimate=0 / interlaced=0 / bluray_compat=0 / constrained_intra=0 / bframes=8 / b_pyramid=2 / b_adapt=2 / b_bias=0 / direct=3 / weightb=1 / open_gop=0 / weightp=2 / keyint=250 / keyint_min=23 / scenecut=40 / intra_refresh=0 / rc_lookahead=60 / rc=2pass / mbtree=1 / bitrate=2740 / ratetol=1.0 / qcomp=0.70 / qpmin=0 / qpmax=69 / qpstep=4 / cplxblur=20.0 / qblur=0.5 / vbv_maxrate=50000 / vbv_bufsize=62500 / nal_hrd=none / ip_ratio=1.10 / aq=2:0.70Language : RussianDefault : YesForced : NoMatrix coefficients : BT.709-5, BT.1361, IEC 61966-2-4 709, SMPTE RP177
AudioID : 2Format : AC-3Format/Info : Audio Coding 3Mode extension : CM (complete main)Codec ID : A_AC3Duration : 1h 25mnBit rate mode : ConstantBit rate : 640 KbpsChannel(s) : 6 channelsChannel positions : Front: L C R, Side: L R, LFESampling rate : 48.0 KHzBit depth : 16 bitsCompression mode : LossyStream size : 394 MiB (19%)Title : 48 kHz, AC3, 3/2 (L,C,R,l,r) + LFE ch, ~ 640.00 kbpsLanguage : RussianDefault : YesForced : No
Menu00:00:00.000 : en:Chapter 100:08:19.916 : en:Chapter 200:15:17.041 : en:Chapter 300:22:17.419 : en:Chapter 400:29:20.925 : en:Chapter 500:36:09.500 : en:Chapter 600:45:12.918 : en:Chapter 700:53:30.790 : en:Chapter 801:00:45.433 : en:Chapter 901:06:53.134 : en:Chapter 1001:14:10.988 : en:Chapter 1101:21:09.656 : en:Chapter 12

FAQ по просмотру MKV/h.264/AAC


_________________
Показать сообщения:    

Текущее время: Сегодня 13:26

Часовой пояс: GMT



Вы не можете начинать темы
Вы не можете отвечать на сообщения
Вы не можете редактировать свои сообщения
Вы не можете удалять свои сообщения
Вы не можете голосовать в опросах
Вы не можете прикреплять файлы к сообщениям
Вы не можете скачивать файлы