Важное объявление!
У Нас Все раздачи мультитрекерные, при нуле пиров в релизах, можете смело вставать на закачку!
 
Автор Сообщение

HUNTER

Стаж:
4 года 4 месяца
Сообщений:
56755

Репутация: 101

[+] [-]
Вне форума [Профиль] [ЛС]

Аладдин и смертельная лампа
Aladdin and the Death Lamp
Страна: США, Канада
Год выпуска: 2012
Жанр: ужасы, фэнтези, приключения
Продолжительность: 01:26:05
Перевод: Одноголосый закадровый - Barin101
русские субтитры: есть-Режиссёр: Марио Аццопарди : Mario Azzopardi
В главных ролях: Даррен Шахлави, Ноам Дженкинс, Кэндис МакКлюр, Юджин Кларк, Суреш Джон, Джордж Гали, Али Ризви, Миф, Тиг Фонг, Ник Алачиотис, Сами Осман, Сантино Буда-Описание: В поисках сокровищ Аладдин и его друг Лука расхищают неизвестную гробницу. Столкнувшись в гробнице с чудовищным испытанием, они заполучают карту, которая приведет их к волшебной лампе…- -Качество: WEB-DL 720p
Формат: MKV
Видео кодек: AVC
Аудио кодек: АС3
Видео: 1272x720, 23.976 fps, ~3 889 kbps avg, 0.177 bit/pixel
Аудио #1: [RUS] 48 kHz, AC3 Dolby Digital, 2/0 (L,R) ch, ~192 kbps
Аудио #2: [ENG] 48 kHz, AC3 Dolby Digital, 3/2 (L,C,R,l,r) + LFE ch, ~384 kbps
субтитры: русские, английские
навигация по главам: 16 глав

скриншоты


MediaInfo

Общее
Уникальный идентификатор : 209674963234015568917585415467315158331 (0x9DBDEDD4C8928E0EA2E48EFBDA8ADD3B)
Полное имя : D:\Фильмы\Аладдин и смертельная лампа\Aladdin and the Death Lamp.2012.WEB-DL 720p.mkv
Формат : Matroska
Версия формата : Version 4 / Version 2
Размер файла : 2,74 Гбайт
Продолжительность : 1 ч. 26 м.
Общий поток : 4556 Кбит/сек
Дата кодирования : UTC 2014-02-21 12:24:36
Программа кодирования : mkvmerge v6.7.0 ('Back to the Ground') 32bit built on Jan 8 2014 15:03:17
Библиотека кодирования : libebml v1.3.0 + libmatroska v1.4.1
Видео
Идентификатор : 1
Формат : AVC
Формат/Информация : Advanced Video Codec
Профиль формата : High@L3.1
Параметр CABAC формата : Нет
Параметр ReFrames формата : 2 кадра
Идентификатор кодека : V_MPEG4/ISO/AVC
Продолжительность : 1 ч. 26 м.
Битрейт : 3889 Кбит/сек
Ширина : 1272 пикселя
Высота : 720 пикселей
Соотношение сторон : 16:9
Режим частоты кадров : Постоянный
Частота кадров : 23,976 кадра/сек
Цветовое пространство : YUV
Субдискретизация насыщенности : 4:2:0
Битовая глубина : 8 бит
Тип развёртки : Прогрессивная
Бит/(Пиксели*Кадры) : 0.177
Размер потока : 2,34 Гбайт (85%)
Язык : English
Default : Да
Forced : Нет
Основные цвета : BT.709
Характеристики трансфера : BT.709
Коэффициенты матрицы : BT.709
Аудио #1
Идентификатор : 2
Формат : AC-3
Формат/Информация : Audio Coding 3
Расширение режима : CM (complete main)
Параметр Endianness формата : Big
Идентификатор кодека : A_AC3
Продолжительность : 1 ч. 26 м.
Вид битрейта : Постоянный
Битрейт : 192 Кбит/сек
Каналы : 2 канала
Расположение каналов : Front: L R
Частота : 48,0 КГц
Битовая глубина : 16 бит
Метод сжатия : С потерями
Размер потока : 118 Мбайт (4%)
Заголовок : VO [Barin101]
Язык : Russian
Default : Да
Forced : Нет
Аудио #2
Идентификатор : 3
Формат : AC-3
Формат/Информация : Audio Coding 3
Расширение режима : CM (complete main)
Параметр Endianness формата : Big
Идентификатор кодека : A_AC3
Продолжительность : 1 ч. 26 м.
Вид битрейта : Постоянный
Битрейт : 384 Кбит/сек
Каналы : 6 каналов
Расположение каналов : Front: L C R, Side: L R, LFE
Частота : 48,0 КГц
Битовая глубина : 16 бит
Метод сжатия : С потерями
Размер потока : 236 Мбайт (8%)
Заголовок : ENG
Язык : English
Default : Нет
Forced : Нет
Текст #1
Идентификатор : 4
Формат : UTF-8
Идентификатор кодека : S_TEXT/UTF8
Идентификатор кодека/Информация : UTF-8 Plain Text
Заголовок : Rus Sub
Язык : Russian
Default : Нет
Forced : Нет
Текст #2
Идентификатор : 5
Формат : UTF-8
Идентификатор кодека : S_TEXT/UTF8
Идентификатор кодека/Информация : UTF-8 Plain Text
Заголовок : Eng Sub
Язык : English
Default : Нет
Forced : Нет
Меню
00:00:00.000 : en:1
00:05:15.000 : en:2
00:11:13.000 : en:3
00:15:57.000 : en:4
00:20:09.000 : en:5
00:23:11.000 : en:6
00:30:59.000 : en:7
00:35:42.000 : en:8
00:39:19.000 : en:9
00:44:22.000 : en:10
00:50:23.000 : en:11
00:54:28.000 : en:12
00:59:41.000 : en:13
01:08:41.000 : en:14
01:16:55.000 : en:15
01:24:32.000 : en:16

_________________
Показать сообщения:    

Текущее время: Сегодня 11:55

Часовой пояс: GMT



Вы не можете начинать темы
Вы не можете отвечать на сообщения
Вы не можете редактировать свои сообщения
Вы не можете удалять свои сообщения
Вы не можете голосовать в опросах
Вы не можете прикреплять файлы к сообщениям
Вы не можете скачивать файлы