Важное объявление!
У Нас Все раздачи мультитрекерные, при нуле пиров в релизах, можете смело вставать на закачку!
 
Автор Сообщение

HUNTER

Стаж:
4 года 4 месяца
Сообщений:
56734

Репутация: 101

[+] [-]
Вне форума [Профиль] [ЛС]

Аладдин / Aladdin
«Представьте, если бы у вас было три желания, три надежды, три мечты, и все они могут сбыться»
-
Год выпуска: 1992
Выпущено: США / Walt Disney Feature Animation
Жанр: мультфильм, мюзикл, фэнтези, мелодрама, комедия, приключения, семейный
Продолжительность: 01:30:39
Перевод (1): Профессиональный (полное дублирование) BD CEE
Перевод (2): Профессиональный (двухголосый закадровый) П. Гланц и И. Королёва
Перевод (3): Авторский (одноголосый закадровый) Алексей Михалёв
Перевод (4): Авторский (одноголосый закадровый) Юрий Живов
Перевод (5): Авторский (одноголосый закадровый) Антон Алексеев
Перевод (6): Авторский (одноголосый закадровый) Александр Марченко
Оригинальная аудиодорожка: Английская
Cубтитры: Русские (2 вида: На песни + Полные), Украинские, Английские
Навигация по главам: Есть (26 главы)-Режиссер:
Рон Клементс / Ron Clements, Джон Маскер / John Musker-В ролях:
Скотт Венгер (Aladdin), Робин Уильямс (Genie / Merchant), Линда Ларкин (Jasmine), Джонатан Фриман (Jafar), Фрэнк Уэлкер (Abu / Cave of Wonders / Rajah), Гилберт Готтфрид (Iago), Дуглас Сил (Sultan), Чарльз Адлер (Gazeem / Melon Merchant / Nut Merchant), Кори Бертон (Prince Achmed / Necklace Merchant), Джим Каммингс (Razoul / Farouk)-Описание:
В славном граде Аграба живет Аладдин, веселый воришка с золотым сердцем. Живет и не знает, что вскоре его ждет величайшее приключение в жизни. Ведь только с его помощью черный маг Джафар может овладеть невероятным сокровищем — лампой, в которой заключен исполняющий желания могущественный Джинн. И только хитроумие, смекалка и доброта Аладдина и его друзей — обезьянки Абу, принцессы Жасмин и самого Джинна способны помешать Джафару завладеть лампой и захватить власть над миром…-Релиз групп | | IMDB | КиноПоиск | Сэмпл |-Качество: BDRip [Blu-Ray Disc | 1080p | HDCLUB]
Формат: MKV
Видео: 1120x608 (1.85:1), 23.976 fps, x264 ~4000 kbps avg, 0.245 bit/pixel
Аудио #1: 48 kHz, AC3 Dolby Digital, 3/2 (L,C,R,l,r) + LFE ch, ~448.00 kbps avg (DUB) BD CEE
Аудио #2: 48 kHz, AC3 Dolby Digital, 3/2 (L,C,R,l,r) + LFE ch, ~448.00 kbps avg (AVO) Алексей Михалёв
Аудио #3: 48 kHz, AC3 Dolby Digital, 3/2 (L,C,R,l,r) + LFE ch, ~448.00 kbps avg (ENG)
Аудио #4: 48 kHz, AC3 Dolby Digital, 3/2 (L,C,R,l,r) + LFE ch, ~448.00 kbps avg (DVO) П. Гланц и И. Королёва отдельно
Аудио #5: 48 kHz, AC3 Dolby Digital, 3/2 (L,C,R,l,r) + LFE ch, ~448.00 kbps avg (AVO) Антон Алексеев отдельно
Аудио #6: 48 kHz, AC3 Dolby Digital, 2/0 (L,R) ch, ~192.00 kbps avg (AVO) Юрий Живов отдельно
Аудио #7: 48 kHz, AC3 Dolby Digital, 2/0 (L,R) ch, ~192.00 kbps avg (AVO) Александр Марченко отдельно
-

Скриншоты

MediaInfo

Код:
General
Complete name                            : D:\Aladdin_1992_BDRip-AVC_by_Dalemake.mkv
Format                                   : Matroska
Format version                           : Version 2
File size                                : 3.39 GiB
Duration                                 : 1h 30mn
Overall bit rate                         : 5 347 Kbps
Encoded date                             : UTC 2015-10-09 19:09:54
Writing application                      : mkvmerge v7.8.0 ('River Man') 32bit built on Apr  3 2015 12:11:22
Writing library                          : libebml v1.3.1 + libmatroska v1.4.2
Video
ID                                       : 1
Format                                   : AVC
Format/Info                              : Advanced Video Codec
Format profile                           : High@L4.1
Format settings, CABAC                   : Yes
Format settings, ReFrames                : 14 frames
Codec ID                                 : V_MPEG4/ISO/AVC
Duration                                 : 1h 30mn
Bit rate                                 : 4 000 Kbps
Width                                    : 1 120 pixels
Height                                   : 608 pixels
Display aspect ratio                     : 1.85:1
Frame rate mode                          : Constant
Frame rate                               : 23.976 fps
Color space                              : YUV
Chroma subsampling                       : 4:2:0
Bit depth                                : 8 bits
Scan type                                : Progressive
Bits/(Pixel*Frame)                       : 0.245
Stream size                              : 2.47 GiB (73%)
Writing library                          : x264 core 146 r2538 121396c
Encoding settings                        : cabac=1 / ref=14 / deblock=1:-1:-1 / analyse=0x3:0x113 / me=umh / subme=11 / psy=1 / psy_rd=1.00:0.00 / mixed_ref=1 / me_range=48 / chroma_me=1 / trellis=2 / 8x8dct=1 / cqm=0 / deadzone=21,11 / fast_pskip=1 / chroma_qp_offset=-2 / threads=6 / lookahead_threads=1 / sliced_threads=0 / nr=0 / decimate=0 / interlaced=0 / bluray_compat=0 / constrained_intra=0 / bframes=16 / b_pyramid=2 / b_adapt=2 / b_bias=0 / direct=3 / weightb=1 / open_gop=1 / weightp=2 / keyint=240 / keyint_min=23 / scenecut=40 / intra_refresh=0 / rc_lookahead=60 / rc=2pass / mbtree=1 / bitrate=4000 / ratetol=1.0 / qcomp=0.60 / qpmin=0 / qpmax=69 / qpstep=4 / cplxblur=20.0 / qblur=0.5 / vbv_maxrate=62500 / vbv_bufsize=50000 / nal_hrd=none / filler=0 / ip_ratio=1.40 / aq=1:0.80
Default                                  : Yes
Forced                                   : No
Audio #1
ID                                       : 2
Format                                   : AC-3
Format/Info                              : Audio Coding 3
Mode extension                           : CM (complete main)
Format settings, Endianness              : Big
Codec ID                                 : A_AC3
Duration                                 : 1h 30mn
Bit rate mode                            : Constant
Bit rate                                 : 448 Kbps
Channel(s)                               : 6 channels
Channel positions                        : Front: L C R, Side: L R, LFE
Sampling rate                            : 48.0 KHz
Bit depth                                : 16 bits
Compression mode                         : Lossy
Stream size                              : 291 MiB (8%)
Title                                    : Dub
Language                                 : Russian
Default                                  : Yes
Forced                                   : No
Audio #2
ID                                       : 3
Format                                   : AC-3
Format/Info                              : Audio Coding 3
Mode extension                           : CM (complete main)
Format settings, Endianness              : Big
Codec ID                                 : A_AC3
Duration                                 : 1h 30mn
Bit rate mode                            : Constant
Bit rate                                 : 448 Kbps
Channel(s)                               : 6 channels
Channel positions                        : Front: L C R, Side: L R, LFE
Sampling rate                            : 48.0 KHz
Bit depth                                : 16 bits
Compression mode                         : Lossy
Stream size                              : 291 MiB (8%)
Title                                    : Mikhalev
Language                                 : Russian
Default                                  : No
Forced                                   : No
Audio #3
ID                                       : 4
Format                                   : AC-3
Format/Info                              : Audio Coding 3
Mode extension                           : CM (complete main)
Format settings, Endianness              : Big
Codec ID                                 : A_AC3
Duration                                 : 1h 30mn
Bit rate mode                            : Constant
Bit rate                                 : 448 Kbps
Channel(s)                               : 6 channels
Channel positions                        : Front: L C R, Side: L R, LFE
Sampling rate                            : 48.0 KHz
Bit depth                                : 16 bits
Compression mode                         : Lossy
Stream size                              : 291 MiB (8%)
Title                                    : Original
Language                                 : English
Default                                  : No
Forced                                   : No
Text #1
ID                                       : 5
Format                                   : UTF-8
Codec ID                                 : S_TEXT/UTF8
Codec ID/Info                            : UTF-8 Plain Text
Title                                    : Songs
Language                                 : Russian
Default                                  : Yes
Forced                                   : No
Text #2
ID                                       : 6
Format                                   : UTF-8
Codec ID                                 : S_TEXT/UTF8
Codec ID/Info                            : UTF-8 Plain Text
Title                                    : Full
Language                                 : Russian
Default                                  : No
Forced                                   : No
Text #3
ID                                       : 7
Format                                   : UTF-8
Codec ID                                 : S_TEXT/UTF8
Codec ID/Info                            : UTF-8 Plain Text
Title                                    : Full
Language                                 : Ukrainian
Default                                  : No
Forced                                   : No
Text #4
ID                                       : 8
Format                                   : UTF-8
Codec ID                                 : S_TEXT/UTF8
Codec ID/Info                            : UTF-8 Plain Text
Title                                    : Full
Language                                 : English
Default                                  : No
Forced                                   : No
Menu
00:00:00.000                             : en:"Arabian Nights"
00:03:06.060                             : en:It Begins on a Dark Night
00:06:47.323                             : en:Aladdin on the Run / "One Jump Ahead"
00:12:37.423                             : en:Princess Jasmine
00:16:34.618                             : en:Jasmine Runs Away
00:19:39.052                             : en:Jafar Discovers His Diamond in the Rough
00:23:50.470                             : en:Jasmine Confronts Jafar
00:27:39.324                             : en:Aladdin at the Cave of Wonders
00:31:21.629                             : en:A Narrow Escape
00:34:55.676                             : en:Trapped!
00:37:20.363                             : en:"A Friend Like Me"
00:41:13.387                             : en:The Sultan Upbraids Jafar
00:43:32.860                             : en:Aladdin Contemplates His Three Wishes
00:47:17.042                             : en:Jafar's Solution to the Problem
00:48:39.958                             : en:"Prince Ali"
00:55:20.025                             : en:Prince Ali Appears on Jasmine's Balcony
00:57:37.745                             : en:A Ride on the Magic Carpet / "a Whole New World"
01:03:04.906                             : en:Aladdin Almost Drowns
01:07:24.915                             : en:Aladdin's Dilemma
01:10:07.411                             : en:A Royal Announcement
01:10:41.654                             : en:The Genie's New Master
01:15:31.610                             : en:Jafar in Power
01:18:57.983                             : en:Jafar the Snake
01:21:41.438                             : en:Back to Normal
01:25:43.555                             : en:End Credits / "A Whole New World"
01:30:39.600                             : en:01:30:39.600

x264 log

Код:
x264 [info]: using SAR=1/1
x264 [warning]: DPB size (14 frames, 37240 mbs) > level limit (12 frames, 32768 mbs)
x264 [info]: using cpu capabilities: MMX2 SSE2Fast SSSE3 SSE4.2 AVX
x264 [info]: profile High, level 4.1
x264 [info]: frame I:933   Avg QP:10.52  size:158248
x264 [info]: frame P:37526 Avg QP:14.77  size: 40416
x264 [info]: frame B:91967 Avg QP:16.90  size: 11480
x264 [info]: consecutive B-frames:  4.6%  6.6% 18.3% 40.2% 18.5%  7.4%  1.5%  0.9%  0.4%  0.3%  0.4%  0.3%  0.1%  0.1%  0.1%  0.2%  0.1%
x264 [info]: mb I  I16..4: 10.4% 51.0% 38.6%
x264 [info]: mb P  I16..4:  1.3%  5.3%  3.1%  P16..4: 30.7% 32.6% 15.5%  0.0%  0.0%    skip:11.4%
x264 [info]: mb B  I16..4:  0.1%  0.6%  0.3%  B16..8: 30.4% 16.1%  4.1%  direct: 2.9%  skip:45.3%  L0:48.9% L1:44.8% BI: 6.3%
x264 [info]: 8x8 transform intra:54.5% inter:32.8%
x264 [info]: direct mvs  spatial:96.4% temporal:3.6%
x264 [info]: coded y,uvDC,uvAC intra: 73.8% 82.3% 72.5% inter: 15.1% 23.5% 17.7%
x264 [info]: i16 v,h,dc,p: 43% 16%  8% 33%
x264 [info]: i8 v,h,dc,ddl,ddr,vr,hd,vl,hu:  7%  8% 15% 10% 12% 10% 12% 11% 15%
x264 [info]: i4 v,h,dc,ddl,ddr,vr,hd,vl,hu: 10%  8% 13% 11% 13% 10% 11% 10% 13%
x264 [info]: i8c dc,h,v,p: 45% 27% 17% 12%
x264 [info]: Weighted P-Frames: Y:2.1% UV:1.6%
x264 [info]: ref P L0: 44.2%  2.3% 18.0%  7.9%  6.4%  5.0%  4.0%  2.3%  2.0%  1.7%  1.6%  1.4%  1.4%  1.4%  0.5%  0.0%
x264 [info]: ref B L0: 56.6% 15.1%  9.4%  4.6%  3.5%  2.7%  2.6%  1.5%  1.1%  1.0%  0.9%  0.6%  0.4%
x264 [info]: ref B L1: 89.4% 10.6%
-

_________________
Показать сообщения:    

Текущее время: Сегодня 17:56

Часовой пояс: GMT



Вы не можете начинать темы
Вы не можете отвечать на сообщения
Вы не можете редактировать свои сообщения
Вы не можете удалять свои сообщения
Вы не можете голосовать в опросах
Вы не можете прикреплять файлы к сообщениям
Вы не можете скачивать файлы