Важное объявление!
У Нас Все раздачи мультитрекерные, при нуле пиров в релизах, можете смело вставать на закачку!
 
Автор Сообщение

димитри37

Стаж:
3 года 9 месяцев
Сообщений:
1237

Репутация: 127

[+] [-]
Вне форума [Профиль] [ЛС]

Аквариум 3D
Aquarium 3D
Год выпуска: 2011
Страна: США
Жанр: Видовой, Релакс
Продолжительность: 01:05:59
Перевод: Не требуется
Описание: Удивительный по своей красоте видовой фильм позволит окунуться в настоящий подводный рай, рассмотреть в мельчайших подробностях обитателей морских глубин в специальных аквариумах. Вы сможете насладиться скрупулезно воссозданными видами лагуны, познакомиться с флорой и фауной океанского дна, понаблюдать за многообразием форм жизни экзотических морей.

Качество: BDRip
Контейнер: MKV
Формат 3D: Half OverUnder / Вертикальная анаморфная стереопара
Порядок ракурсов: левый ракурс первый
Видео кодек: x264
Аудио кодек: AC3
Видео: AVC / 23,976 fps 1920х1080 16.1 Mbps
Аудио: Инструментал AC3 / 48 KHz / 5.1 ch / 640 Kbps BD 3D

MediaInfo

General
Unique ID : 252810468778481807464003424661829023573 (0xBE318673FFC2A8DF854C704BF86B7755)
Complete name : E:DownloadsAquarium(3D-halfOU)2012(Ash61).mkv
Format : Matroska
Format version : Version 2
File size : 7.85 GiB
Duration : 1h 5mn
Overall bit rate : 17.0 Mbps
Movie name : Аквариум / Aquarium (3D) 2012
Encoded date : UTC 2013-08-24 06:24:24
Writing application : mkvmerge v5.8.0 ('No Sleep / Pillow') built on Sep 2 2012 15:37:04
Writing library : libebml v1.2.3 + libmatroska v1.3.0
Video
ID : 1
Format : AVC
Format/Info : Advanced Video Codec
Format profile : High@L4.1
Format settings, CABAC : Yes
Format settings, ReFrames : 4 frames
Codec ID : V_MPEG4/ISO/AVC
Duration : 1h 5mn
Bit rate : 16.1 Mbps
Width : 1 920 pixels
Height : 1 080 pixels
Display aspect ratio : 16:9
Frame rate mode : Constant
Frame rate : 23.976 fps
Color space : YUV
Chroma subsampling : 4:2:0
Bit depth : 8 bits
Scan type : Progressive
Bits/(Pixel*Frame) : 0.323
Stream size : 7.40 GiB (94%)
Title : BDRip by Ash61
Writing library : x264 core 129 r2245 bc13772
Encoding settings : cabac=1 / ref=4 / deblock=1:-3:-3 / analyse=0x3:0x113 / me=umh / subme=9 / psy=1 / psy_rd=1.00:0.15 / mixed_ref=1 / me_range=32 / chroma_me=1 / trellis=2 / 8x8dct=1 / cqm=0 / deadzone=21,11 / fast_pskip=1 / chroma_qp_offset=-3 / threads=12 / lookahead_threads=2 / sliced_threads=0 / nr=0 / decimate=1 / interlaced=0 / bluray_compat=0 / constrained_intra=0 / bframes=8 / b_pyramid=2 / b_adapt=2 / b_bias=0 / direct=3 / weightb=1 / open_gop=0 / weightp=2 / keyint=250 / keyint_min=23 / scenecut=40 / intra_refresh=0 / rc_lookahead=60 / rc=crf / mbtree=1 / crf=18.0 / qcomp=0.70 / qpmin=10 / qpmax=69 / qpstep=4 / vbv_maxrate=40000 / vbv_bufsize=30000 / crf_max=0.0 / nal_hrd=none / frame-packing=4 / ip_ratio=1.40 / aq=1:0.70
Default : Yes
Forced : No
Audio
ID : 2
Format : AC-3
Format/Info : Audio Coding 3
Mode extension : CM (complete main)
Format settings, Endianness : Big
Codec ID : A_AC3
Duration : 1h 5mn
Bit rate mode : Constant
Bit rate : 640 Kbps
Channel(s) : 6 channels
Channel positions : Front: L C R, Side: L R, LFE
Sampling rate : 48.0 KHz
Bit depth : 16 bits
Compression mode : Lossy
Stream size : 302 MiB (4%)
Title : Instrumental
Default : Yes
Forced : No
Menu
00:00:00.000 : en:1
00:12:04.350 : en:2
00:23:53.450 : en:3
00:33:31.950 : en:4
00:44:28.450 : en:5
00:51:38.800 : en:6

Для оценки 3Д - Анимированные скрины












О методах просмотра 3DИсточник:
Показать сообщения:    

Текущее время: Сегодня 22:53

Часовой пояс: GMT



Вы не можете начинать темы
Вы не можете отвечать на сообщения
Вы не можете редактировать свои сообщения
Вы не можете удалять свои сообщения
Вы не можете голосовать в опросах
Вы не можете прикреплять файлы к сообщениям
Вы не можете скачивать файлы