Важное объявление!
У Нас Все раздачи мультитрекерные, при нуле пиров в релизах, можете смело вставать на закачку!
 
Автор Сообщение

HUNTER

Стаж:
4 года 4 месяца
Сообщений:
56734

Репутация: 101

[+] [-]
Вне форума [Профиль] [ЛС]

Компьютерный гений
Год выпуска: 2015
Производитель: Академия Компьютерных Знаний
Сайт производителя: http://komp-uroki.ru/
Автор: Михаил Арсланин
Продолжительность: 1 урок 2-15 мин
Тип раздаваемого материала: Мультимедийный диск
Язык: Русский
Описание: Курс обучения включает в себя знакомство с программами, которые необходимы для пользования и работы с компьютером. Программа обучения выложена в доступной форме и записана на DVD. Восемь уроков, которые не заберут у вас много времени. Если, вы что-то забыли, вы всегда можете загрузить диск, выбрать нужную вам тему и еще раз прослушать необходимые материалы. Приятный голос учителя не оставит вас равнодушным.
С Академией Компьютерных Знаний изучать компьютер проще, чем когда-либо!Курс обучения включает в себя знакомство с программами, которые необходимы для пользования и работы с компьютером. Программа обучения выложена в доступной форме и записана на DVD. Восемь уроков, которые не заберут у вас много времени. Если, вы что-то забыли, вы всегда можете загрузить диск, выбрать нужную вам тему и еще раз прослушать необходимые материалы. Приятный голос учителя не оставит вас равнодушным.
С Академией Компьютерных Знаний изучать компьютер проще, чем когда-либо!

Содержание

БЛОК 1.АППАРАТНОЕ ОБЕСПЕЧЕНИЕ
БЛОК 2.WINDOWS 8
БЛОК 3.ПРИНЦИПЫ РАБОТЫ
БЛОК 4.МУЛЬТИМЕДИА
БЛОК 5.ЧАСТО ИСПОЛЬЗУЕМЫЕ ПРОГРАММЫ
БЛОК 6.ОФИСНЫЕ ПРОГРАММЫ
БЛОК 7.БЕЗОПАСНОСТЬ ДАННЫХ
БЛОК 8.ИНТЕРНЕТ
БЛОК 9.ADOBE PHOTOSHOP
БОНУС 1.БЕСПЛАТНЫЕ ФИЛЬМЫ В HD - КАЧЕСТВЕ
БОНУС 2.ЗАЩИТА ОТ ИНТЕРНЕТ - МОШЕННИКОВ
БОНУС 3.БЕСПЛАТНЫЕ SMS ЧЕРЕЗ ИНТЕРНЕТ
Формат видео: MP4

Видео

Общее
Полное имя : E:\rs\video\1-4.mp4
Формат : MPEG-4
Профиль формата : Base Media
Идентификатор кодека : isom
Размер файла : 6,26 Мбайт
Продолжительность : 1 м. 46 с.
Режим общего битрейта : Переменный
Общий поток : 495 Кбит/сек
Дата кодирования : UTC 2015-03-19 17:13:07
Видео
Идентификатор : 1
Формат : AVC
Формат/Информация : Advanced Video Codec
Профиль формата : High@L1.3
Параметр CABAC формата : Нет
Параметр ReFrames формата : 1 кадр
Идентификатор кодека : avc1
Идентификатор кодека/Информация : Advanced Video Coding
Продолжительность : 1 м. 46 с.
Битрейт : 384 Кбит/сек
Максимальный битрейт : 5415 Кбит/сек
Ширина : 1280 пикселей
Высота : 720 пикселей
Соотношение сторон : 16:9
Режим частоты кадров : Постоянный
Частота кадров : 12,000 кадров/сек
Цветовое пространство : YUV
Субдискретизация насыщенности : 4:2:0
Битовая глубина : 8 бит
Тип развёртки : Прогрессивная
Бит/(Пиксели*Кадры) : 0.035
Размер потока : 4,76 Мбайт (76%)
Библиотека кодирования : x264 core 116 r2019 9cc407d
Дата кодирования : UTC 2015-03-19 17:13:07
Дата пометки : UTC 2015-03-19 17:13:07

Аудио

Идентификатор : 2
Формат : AAC
Формат/Информация : Advanced Audio Codec
Профиль формата : LC
Идентификатор кодека : 40
Продолжительность : 1 м. 45 с.
Вид битрейта : Переменный
Битрейт : 117 Кбит/сек
Максимальный битрейт : 168 Кбит/сек
Каналы : 2 канала
Расположение каналов : Front: L R
Частота : 44,1 КГц
Метод сжатия : С потерями
Размер потока : 1,47 Мбайт (24%)
Дата кодирования : UTC 2015-03-19 17:13:07
Дата пометки : UTC 2015-03-19 17:13:07

Скриншоты



_________________

lexabush79

Стаж:
1 год
Сообщений:
1
Вне форума [Профиль] [ЛС]

Встаньте пожалуйста на раздачу, а то не качает.

batr94

Стаж:
9 месяцев 4 дня
Сообщений:
1
Вне форума [Профиль] [ЛС]

Встаньте пожалуйста на раздачу. Буду потом раздавать, слово пацана
Показать сообщения:    

Текущее время: Сегодня 09:11

Часовой пояс: GMT



Вы не можете начинать темы
Вы не можете отвечать на сообщения
Вы не можете редактировать свои сообщения
Вы не можете удалять свои сообщения
Вы не можете голосовать в опросах
Вы не можете прикреплять файлы к сообщениям
Вы не можете скачивать файлы