Важное объявление!
У Нас Все раздачи мультитрекерные, при нуле пиров в релизах, можете смело вставать на закачку!
 
Автор Сообщение

HUNTER

Стаж:
4 года 4 месяца
Сообщений:
56798

Репутация: 101

[+] [-]
Вне форума [Профиль] [ЛС]

-
Год выпуска: 2014
Страна: Япония
Жанр: фэнтези, этти
Продолжительность: ТВ, 12 эп. по 24 мин.
Выпуск: c 05.04.2014 по 21.06.2014-Перевод:

  • русские субтитры от YakuSub Studio
    редактор: Aero, переводчики: Hikari no Tenshi, Sidewinder, перевод песен: Nika_Elrik, оформление: KeeperRus
    -Режиссер: Тада Сюнсукэ
    Студия: C-Station-Описание:
    Посреди могучих держав лежит небольшое горное королевство Лотремон, славное единственной в мире академией, где готовят наездников на драконах. Мало кто способен «запечатлеть» разумного зверя, вырастить его, а потом несколько лет учиться вместе, составляя идеальную боевую пару. Лучшие рыцари получают от дракона магические доспехи и оружие, заменяя собой целые армии, поэтому любая страна с готовностью оплатит недешевое обучение своих кандидатов. Юные таланты прибывают в академию Ансариван отовсюду, в том числе из враждующих земель, но Лотремон издавна считается нейтральной территорией, где запрещены боевые действия. Сильных соседей вроде империи Зефарос договоры не волнуют, но время еще не пришло…
    Обычно боевая пара создается один раз, но Аш Блейк – исключение. После загадочного происшествия в детстве парень обрел способность ладить с любым драконом, а вот собственного, несмотря на знак всадника, никак не мог получить. Насмешки кончились, когда после встречи в горах Аш все же пробудил своего партнера… только им оказалась юная девушка. Обычно человеческий облик принимают старые и мудрые драконы, а тут с рождения, да еще характерец не дай бог… В общем, многие сложили два и два и поняли, что Ашу и его малышке, названной Эко, предстоят великие дела. Наивного парня тут же взяли в оборот Ребекка, лучший боец академии и председатель студсовета, и однокурсница Сильвия, местная принцесса. Первые же столкновения с врагом показали – избранник годится для дальнейшей работы. А мы и так знали, что боевой гарем спасет мир!
    © Hollow, World Art
    В оригинале герои сериала зовутся японским словом ryuukishi – «драконьи рыцари». Драгонар – фентезийный термин, который в мире сериала значит всадника, вырастившего полноценного боевого дракона. Высший уровень мастерства, когда дракон предоставляет всаднику броню и оружие, называется арк-драгонар.-Информационные ссылки: AniDB || World Art || MAL-Качество: BDRip
    Энкод: Winter - RG Pantheon
    Тип видео: без хардсаба, без линковки
    Формат: mkv
    Видео: x264 (Hi10p), 1280x720, ~3400 Kbps, 23.976 fps
    Аудио JAP: Vorbis, 48000Hz, ~256 Kbps, 2ch-

    Список эпизодов
    01. A Boy and His Dragon
    02. Ties That Bind: The Astral Flow
    СкриншотыОтличия от других раздачПодробные тех. данные
    Общее
    Уникальный идентификатор : 195687578707463333002871772530786138110 (0x93380E87ACC255DDBC870E2EC25B77FE)
    Полное имя : Z:\Anime\720p\Seikoku no Dragonar [BD] [720p]\[Winter] Seikoku no Dragonar 01 [BDrip 1280x720 x264 Vorbis].mkv
    Формат : Matroska
    Версия формата : Version 2
    Размер файла : 662 Мбайт
    Продолжительность : 25 м.
    Режим общего битрейта : Переменный
    Общий поток : 3680 Кбит/сек
    Дата кодирования : UTC 2014-07-13 09:38:25
    Программа кодирования : mkvmerge v2.9.8 ('C'est le bon') built on Aug 13 2009 12:49:06
    Библиотека кодирования : libebml v0.7.7 + libmatroska v0.8.1
    Видео
    Идентификатор : 1
    Формат : AVC
    Формат/Информация : Advanced Video Codec
    Профиль формата : High 10@L4.1
    Параметр CABAC формата : Да
    Параметр ReFrames формата : 9 кадров
    Идентификатор кодека : V_MPEG4/ISO/AVC
    Продолжительность : 25 м.
    Битрейт : 3351 Кбит/сек
    Ширина : 1280 пикселей
    Высота : 720 пикселей
    Соотношение сторон : 16:9
    Режим частоты кадров : Постоянный
    Частота кадров : 23,976 кадра/сек
    Цветовое пространство : YUV
    Субдискретизация насыщенности : 4:2:0
    Битовая глубина : 10 бит
    Тип развёртки : Прогрессивная
    Бит/(Пиксели*Кадры) : 0.152
    Размер потока : 602 Мбайт (91%)
    Библиотека кодирования : x264 core 132 r2309 3b1f1f7
    Настройки программы : cabac=1 / ref=9 / deblock=1:-2:-2 / analyse=0x3:0x133 / me=umh / subme=9 / psy=1 / psy_rd=0.90:0.00 / mixed_ref=1 / me_range=24 / chroma_me=1 / trellis=2 / 8x8dct=1 / cqm=0 / deadzone=21,11 / fast_pskip=1 / chroma_qp_offset=-2 / threads=12 / lookahead_threads=2 / sliced_threads=0 / nr=0 / decimate=0 / interlaced=0 / bluray_compat=0 / constrained_intra=0 / bframes=8 / b_pyramid=2 / b_adapt=2 / b_bias=0 / direct=1 / weightb=1 / open_gop=0 / weightp=2 / keyint=250 / keyint_min=23 / scenecut=40 / intra_refresh=0 / rc=crf / mbtree=0 / crf=15.8 / qcomp=0.70 / qpmin=9 / qpmax=40 / qpstep=4 / ip_ratio=1.40 / pb_ratio=1.30 / aq=1:0.90 / zones=2120,4279,b=1.3
    Default : Нет
    Forced : Нет
    Аудио
    Идентификатор : 2
    Формат : Vorbis
    Параметр Floor формата : 1
    Идентификатор кодека : A_VORBIS
    Продолжительность : 25 м.
    Вид битрейта : Переменный
    Битрейт : 256 Кбит/сек
    Каналы : 2 канала
    Частота : 48,0 КГц
    Метод сжатия : С потерями
    Размер потока : 46,0 Мбайт (7%)
    Библиотека кодирования : libVorbis (Schaufenugget) (20101101 (Schaufenugget))
    Язык : Japanese
    Default : Да
    Forced : Нет
    - -Информация о релизе
  • Выбор видео, перевода, озвучки, а также типа сборки материала осуществляется релизером и не подлежит обсуждению. Если вы считаете, что раздаваемый материал противоречит правилам раздела "Аниме" rutracker.org, сообщите об этом одному из модераторов раздела.
  • В случае появления нового материала или же лучшего по качеству материала релизер оставляет за собой право обновить раздачу. В этом случае вам необходимо ознакомиться с изменениями (добавлениями) и перекачать торрент.
  • Данный релиз предназначен для просмотра на ПК. Воспроизведение на иных проигрывателях не гарантируется. Для просмотра рекомендуется Media Player Classic с установленным пакетом кодеков K-Lite.
  • Данный релиз содержит 10-битное видео (Hi10p). Для корректного воспроизведения обязательно используйте кодеки, поддерживающие 10-битное видео.
    Обсудить частные случаи проблем с воспроизведением и получить дополнительную информацию можно здесь.

  • Данный релиз предназначен для просмотра с внешними субтитрами и внешними звуковыми дорожками.
  • Для просмотра с внешней звуковой дорожкой нужно:
    перекинуть файлы .mka из папки "RUS Sound [<автор(ы) озвучки>]" в одну папку с видео и переключить звуковую дорожку в плеере при просмотре. Как это сделать в разных плеерах подробно описано здесь.

  • Для просмотра с субтитрами нужно:
    перекинуть файлы .ass из папки "RUS Subtitles [<автор(ы) перевода>]" в одну папку с видео - плеер подгрузит их автоматически при открытии видео.

  • Если у вас возникли проблемы с просмотром, не связанные с описанным выше, сообщите о них автору раздачи посредством сообщения в теме или ЛС Aglenn.

  • _________________
    Показать сообщения:    

    Текущее время: Сегодня 06:36

    Часовой пояс: GMT



    Вы не можете начинать темы
    Вы не можете отвечать на сообщения
    Вы не можете редактировать свои сообщения
    Вы не можете удалять свои сообщения
    Вы не можете голосовать в опросах
    Вы не можете прикреплять файлы к сообщениям
    Вы не можете скачивать файлы