Важное объявление!
У Нас Все раздачи мультитрекерные, при нуле пиров в релизах, можете смело вставать на закачку!
 
Автор Сообщение

HUNTER

Стаж:
4 года 4 месяца
Сообщений:
56719

Репутация: 101

[+] [-]
Вне форума [Профиль] [ЛС]

Академия Драконов / Seikoku no Dragonar
Страна: Япония
Год выпуска: 2014 г.
Жанр: Приключения, комедия, фэнтези. этти
Продолжительность: 12 эп. по 25 мин
русские субтитры: внешним файлом-Переводчик: CitTim
Редактор: LindaLL
Режиссер: Тада Сюнсукэ
Студия: C-Station
Описание: Обучение управлению и езде на драконах довольно легко дается большинству учащихся в Академии Драгонаров, за исключением одного первогодки: Эша Блэка, который был прозван «Неудачником номер один». Его проблема в том, что у каждого наездника свой дракон, но его дракон ни разу не появлялся. Но однажды его дракон всё-таки пробудился, но этот не был похож ни на одного дракона, которые были известны. Этим драконом была прекрасная девушка! Что еще хуже, Эш вскоре узнаёт, что у его нового дракона довольно капризный и властный характер. Она сразу сообщает ему, что она его хозяка, а он — слуга. Проблемы Эша с полетом на драконах только начинаются.
Равка: Zero-Raws
Хардсаб: Отсутствует
Качество: HDTVRip
Формат видео: mp4
Видео: AVC, 8 bits, 1280x720; 23.976 fps; 2732 Kbps, (16:9)
Аудио:
1. JP - AAC, 48.0 KHz, 252 kbps, 2 ch

Список эпизодов

01.

Скриншоты

MediaInfo

Общее
Полное имя : D:\[Zero-Raws]\[Zero-Raws] Seikoku no Dragonar\[Zero-Raws] Seikoku no Dragonar - 01 (MX 1280x720 x264 AAC).mp4
Формат : MPEG-4
Профиль формата : Base Media
Идентификатор кодека : isom
Размер файла : 513 Мбайт
Продолжительность : 23 м.
Режим общего битрейта : Переменный
Общий поток : 2988 Кбит/сек
Дата кодирования : UTC 2014-04-08 03:23:17
Дата пометки : UTC 2014-04-08 03:23:17
Видео
Идентификатор : 1
Формат : AVC
Формат/Информация : Advanced Video Codec
Профиль формата : High@L3.1
Параметр CABAC формата : Да
Параметр ReFrames формата : 4 кадра
Идентификатор кодека : avc1
Идентификатор кодека/Информация : Advanced Video Coding
Продолжительность : 23 м.
Битрейт : 2732 Кбит/сек
Максимальный битрейт : 12,8 Мбит/сек
Ширина : 1280 пикселей
Высота : 720 пикселей
Соотношение сторон : 16:9
Режим частоты кадров : Постоянный
Частота кадров : 23,976 кадра/сек
Цветовое пространство : YUV
Субдискретизация насыщенности : 4:2:0
Битовая глубина : 8 бит
Тип развёртки : Прогрессивная
Бит/(Пиксели*Кадры) : 0.124
Размер потока : 469 Мбайт (91%)
Библиотека кодирования : x264 core 133 r2334 a3ac64b
Настройки программы : cabac=1 / ref=3 / deblock=1:0:0 / analyse=0x3:0x113 / me=hex / subme=7 / psy=1 / psy_rd=1.00:0.00 / mixed_ref=1 / me_range=16 / chroma_me=1 / trellis=1 / 8x8dct=1 / cqm=0 / deadzone=21,11 / fast_pskip=1 / chroma_qp_offset=-2 / threads=12 / lookahead_threads=2 / sliced_threads=0 / nr=0 / decimate=1 / interlaced=0 / bluray_compat=0 / constrained_intra=0 / bframes=3 / b_pyramid=2 / b_adapt=1 / b_bias=0 / direct=1 / weightb=1 / open_gop=0 / weightp=2 / keyint=250 / keyint_min=23 / scenecut=40 / intra_refresh=0 / rc_lookahead=40 / rc=crf / mbtree=1 / crf=19.5 / qcomp=0.60 / qpmin=0 / qpmax=69 / qpstep=4 / ip_ratio=1.40 / aq=1:1.00
Дата кодирования : UTC 2014-04-08 02:59:44
Дата пометки : UTC 2014-04-08 03:23:18
Аудио
Идентификатор : 2
Формат : AAC
Формат/Информация : Advanced Audio Codec
Профиль формата : LC
Идентификатор кодека : 40
Продолжительность : 23 м.
Вид битрейта : Переменный
Битрейт : 252 Кбит/сек
Максимальный битрейт : 258 Кбит/сек
Каналы : 2 канала
Расположение каналов : Front: L R
Частота : 48,0 КГц
Метод сжатия : С потерями
Размер потока : 43,3 Мбайт (8%)
Заголовок : aac#trackID=1:lang=Japanese@GPAC0.5.1-DEV-rev4708
Язык : Japanese
Дата кодирования : UTC 2014-04-08 03:23:17
Дата пометки : UTC 2014-04-08 03:23:18

_________________
Показать сообщения:    

Текущее время: Сегодня 04:14

Часовой пояс: GMT



Вы не можете начинать темы
Вы не можете отвечать на сообщения
Вы не можете редактировать свои сообщения
Вы не можете удалять свои сообщения
Вы не можете голосовать в опросах
Вы не можете прикреплять файлы к сообщениям
Вы не можете скачивать файлы