Важное объявление!
У Нас Все раздачи мультитрекерные, при нуле пиров в релизах, можете смело вставать на закачку!
 
Автор Сообщение

HUNTER

Стаж:
4 года 4 месяца
Сообщений:
56790

Репутация: 101

[+] [-]
Вне форума [Профиль] [ЛС]

Академия вампиров / Vampire Academy
Страна: США
Студия: Angry Films, Kintop Pictures, Preger Entertainment, Reliance Entertainment
Жанр: Ужасы, фэнтези, боевик, комедия, детектив
Год выпуска: 2014
Продолжительность: 01:44:22
Перевод: Любительский (многоголосый закадровый) BaibaKo
Cубтитры: Русские, английские (Full + SDH + SDH-Colored - SRT)
Оригинальная аудиодорожка: английский
Режиссер: Марк Уотерс / Mark Waters
В ролях: Зои Дойч, Люси Фрай, Данила Козловский, Доминик Шервуд, Сара Хайланд, Гэбриел Бирн, Сами Гэйл, Ольга Куриленко, Джоэли Ричардсон, Кэмерон Монахэн.
Описание: Мало кому известно, что в Америке, в самом сердце Монтаны, имеется настоящая Академия, где вампиры обучаются высокому искусству магии. И почти никто не знает, что в мире идут кровавые вампирские войны и расе мороев противостоит жестокое племя стригоев, вампиров, переступивших черту закона и не гнушающихся убийством. Даже стены Академии, святая святых науки, не слишком надежная защита от происков темных сил. Юная моройская принцесса Лисса и Роза, ее подруга и верный страж, однажды убеждаются в этом, оказавшись в эпицентре грозных событий.
Сэмпл: http://multi-up.com/974279
Тип релиза: BDRip 720p рип от - WiKi
Контейнер: MKV
Видео: MPEG-4 AVC, High@L4.1, 4489 Kbps, 1280 х 534 pixels, 23.976 fps
Аудио 1: AC3, 384 Kbps, 6 channels, Front: L C R, Side: L R, LFE, 48.0 KHz, 16 bits | RU
Аудио 2: DTS, 1509 Kbps, 6 channels, Front: L C R, Side: L R, LFE, 48.0 KHz, 16 bits | ENG

MediaInfo
General
Unique ID : 191276759307545425788417091292772473718 (0x8FE69057EBE57685BE28F0F9B90C9B76)
Complete name : D:\kirovtorrent\Vampire.Academy.2014.720p.BluRay.x264.DTS-WiKi.mkv
Format : Matroska
Format version : Version 4 / Version 2
File size : 4.65 GiB
Duration : 1h 44mn
Overall bit rate : 6 385 Kbps
Encoded date : UTC 2014-05-17 08:52:31
Writing application : mkvmerge v6.8.0 ('Theme for Great Cities') 64bit built on Mar 2 2014 21:34:26
Writing library : libebml v1.3.0 + libmatroska v1.4.1
Video
ID : 1
Format : AVC
Format/Info : Advanced Video Codec
Format profile : High@L4.1
Format settings, CABAC : Yes
Format settings, ReFrames : 12 frames
Codec ID : V_MPEG4/ISO/AVC
Duration : 1h 44mn
Bit rate : 4 489 Kbps
Width : 1 280 pixels
Height : 534 pixels
Display aspect ratio : 2.40:1
Frame rate mode : Constant
Frame rate : 23.976 fps
Color space : YUV
Chroma subsampling : 4:2:0
Bit depth : 8 bits
Scan type : Progressive
Bits/(Pixel*Frame) : 0.274
Stream size : 3.18 GiB (68%)
Title : WSmit60 & WiKi
Writing library : x264 core 130 r2273 b3065e6
Encoding settings : cabac=1 / ref=12 / deblock=1:-3:-3 / analyse=0x3:0x133 / me=umh / subme=11 / psy=1 / psy_rd=1.05:0.05 / mixed_ref=1 / me_range=32 / chroma_me=1 / trellis=2 / 8x8dct=1 / cqm=0 / deadzone=21,11 / fast_pskip=0 / chroma_qp_offset=-3 / threads=12 / lookahead_threads=2 / sliced_threads=0 / nr=0 / decimate=1 / interlaced=0 / bluray_compat=0 / constrained_intra=0 / bframes=8 / b_pyramid=2 / b_adapt=2 / b_bias=0 / direct=3 / weightb=1 / open_gop=0 / weightp=2 / keyint=250 / keyint_min=23 / scenecut=40 / intra_refresh=0 / rc_lookahead=60 / rc=2pass / mbtree=1 / bitrate=4489 / ratetol=1.0 / qcomp=0.60 / qpmin=0 / qpmax=69 / qpstep=4 / cplxblur=20.0 / qblur=0.5 / ip_ratio=1.40 / aq=1:0.80
Language : English
Default : Yes
Forced : No
Audio #1
ID : 2
Format : AC-3
Format/Info : Audio Coding 3
Mode extension : CM (complete main)
Format settings, Endianness : Big
Codec ID : A_AC3
Duration : 1h 44mn
Bit rate mode : Constant
Bit rate : 384 Kbps
Channel(s) : 6 channels
Channel positions : Front: L C R, Side: L R, LFE
Sampling rate : 48.0 KHz
Bit depth : 16 bits
Compression mode : Lossy
Stream size : 287 MiB (6%)
Title : MVO (BaibaKo) AC3 5.1 @ 384k
Language : Russian
Default : Yes
Forced : No
Audio #2
ID : 3
Format : DTS
Format/Info : Digital Theater Systems
Mode : 16
Format settings, Endianness : Big
Codec ID : A_DTS
Duration : 1h 44mn
Bit rate mode : Constant
Bit rate : 1 509 Kbps
Channel(s) : 6 channels
Channel positions : Front: L C R, Side: L R, LFE
Sampling rate : 48.0 KHz
Bit depth : 24 bits
Compression mode : Lossy
Stream size : 1.10 GiB (24%)
Title : ORG DTS 5.1 @ 1509k
Language : English
Default : No
Forced : No
Text #1
ID : 4
Format : UTF-8
Codec ID : S_TEXT/UTF8
Codec ID/Info : UTF-8 Plain Text
Language : Russian
Default : No
Forced : No
Text #2
ID : 5
Format : UTF-8
Codec ID : S_TEXT/UTF8
Codec ID/Info : UTF-8 Plain Text
Title : Full
Language : English
Default : No
Forced : No
Text #3
ID : 6
Format : UTF-8
Codec ID : S_TEXT/UTF8
Codec ID/Info : UTF-8 Plain Text
Title : SDH
Language : English
Default : No
Forced : No
Text #4
ID : 7
Format : UTF-8
Codec ID : S_TEXT/UTF8
Codec ID/Info : UTF-8 Plain Text
Title : SDH-Colored
Language : English
Default : No
Forced : No
Menu
00:06:11.913 : en:(01)00:06:11:913
00:13:48.661 : en:(02)00:13:48:661
00:19:34.590 : en:(03)00:19:34:590
00:26:25.834 : en:(04)00:26:25:834
00:33:07.652 : en:(05)00:33:07:652
00:39:47.760 : en:(06)00:39:47:760
00:46:29.119 : en:(07)00:46:29:119
00:51:45.852 : en:(08)00:51:45:852
00:56:13.578 : en:(09)00:56:13:578
01:01:42.323 : en:(10)01:01:42:323
01:07:31.005 : en:(11)01:07:31:005
01:13:32.533 : en:(12)01:13:32:533
01:21:50.071 : en:(13)01:21:50:071
01:30:11.781 : en:(14)01:30:11:781
01:36:05.676 : en:(15)01:36:05:676
01:44:22.005 : en:(16)01:44:22:005
Скриншоты

_________________
Показать сообщения:    

Текущее время: Сегодня 08:34

Часовой пояс: GMT



Вы не можете начинать темы
Вы не можете отвечать на сообщения
Вы не можете редактировать свои сообщения
Вы не можете удалять свои сообщения
Вы не можете голосовать в опросах
Вы не можете прикреплять файлы к сообщениям
Вы не можете скачивать файлы