Важное объявление!
У Нас Все раздачи мультитрекерные, при нуле пиров в релизах, можете смело вставать на закачку!
 
Автор Сообщение

HUNTER

Стаж:
4 года 4 месяца
Сообщений:
56790

Репутация: 101

[+] [-]
Вне форума [Профиль] [ЛС]

Адреналин: История BMW Motorsport / Adrenalin - The BMW Touring Car Story
Дата/Год выпуска: 1 декабря 2014
Страна: Германия
Жанр: Документальный
Продолжительность: 02:02:57
Перевод: Студийный (одноголосый закадровый)
Доп. инфо о переводе: BMIRussian
Русские субтитры: нет
Оригинальная аудиодорожка: нет
Режиссер: Тим и Ник Хане
Описание: Документальный фильм, посвященный истории компании BMW в автоспорте и бренду "М".
Историю пятидесяти лет BMW в автогонках расскажут люди, непосредственно связанные с этим - от Хуберта Ханне (пилот из 60ых) и Алекса Занарди до Марко Виттмана (чемпион DTM 2014), от Поля Роше (главный моторист в течение многих лет) до Йохена Неерпаша (создатель BMW M Gmbh)
Фильм будет интересен не только фанатам марки, но и просто любителям автоспорта и его истории.
Сэмпл: http://sendfile.su/1208714
качество: BDRip
формат: AVI
Видео: MPEG4, 854x480, 46:9, 1387 Кбит/сек, 25.000 кадров/сек
Аудио: AC3, 192 Кбит/сек, 48,0 КГц, 2 канала (Russian)

MediaInfo

ОбщееПолное имя : E:\Adrenalin - The BMW Touring Car Story BDRip [BMIRussian].aviФормат : AVIФормат/Информация : Audio Video InterleaveПрофиль формата : OpenDMLРазмер файла : 1,37 ГбайтПродолжительность : 2 ч. 2 м.Общий поток : 1592 Кбит/секПрограмма кодирования : Lavf56.36.100
ВидеоИдентификатор : 1Формат : MPEG-4 VisualПрофиль формата : Simple@L1Параметр BVOP формата : НетПараметр QPel формата : НетПараметр GMC формата : Без точки переходаПараметр матрицы формата : Default (H.263)Идентификатор кодека : FMP4Продолжительность : 2 ч. 2 м.Битрейт : 1387 Кбит/секШирина : 854 пикселяВысота : 480 пикселейСоотношение сторон : 16:9Частота кадров : 25,000 кадров/секЦветовое пространство : YUVСубдискретизация насыщенности : 4:2:0Битовая глубина : 8 битТип развёртки : ПрогрессивнаяМетод сжатия : С потерямиБит/(Пиксели*Кадры) : 0.135Размер потока : 1,19 Гбайт (87%)Библиотека кодирования : Lavc56.41.100
АудиоИдентификатор : 0Формат : AC-3Формат/Информация : Audio Coding 3Расширение режима : CM (complete main)Параметр Endianness формата : BigИдентификатор кодека : 2000Продолжительность : 2 ч. 2 м.Вид битрейта : ПостоянныйБитрейт : 192 Кбит/секКаналы : 2 каналаРасположение каналов : Front: L RЧастота : 48,0 КГцБитовая глубина : 16 битМетод сжатия : С потерямиРазмер потока : 169 Мбайт (12%)Выравнивание : Соединение по промежуткамПродолжительность промежутка : 40 мс. (1,00 видеокадр)

Скриншоты


_________________
Показать сообщения:    

Текущее время: Сегодня 17:21

Часовой пояс: GMT



Вы не можете начинать темы
Вы не можете отвечать на сообщения
Вы не можете редактировать свои сообщения
Вы не можете удалять свои сообщения
Вы не можете голосовать в опросах
Вы не можете прикреплять файлы к сообщениям
Вы не можете скачивать файлы