Важное объявление!
У Нас Все раздачи мультитрекерные, при нуле пиров в релизах, можете смело вставать на закачку!
 
Автор Сообщение

димитри37

Стаж:
3 года 9 месяцев
Сообщений:
1237

Репутация: 127

[+] [-]
Вне форума [Профиль] [ЛС]

Агент под прикрытием / So Undercover
Страна: США
Студия: Crystal City Entertainment, Exclusive Media Group, Hope Town Entertainment, Kappa Undercover Pictures, Scarlet Fire Entertainment
Жанр: боевик, комедия
Год выпуска: 2012
Продолжительность: 01:33:38
Перевод: Профессиональный (дублированный) [Blu-ray Rus]
Cубтитры: русские, английские
Режиссер: Том Вон / Tom Vaughan
В ролях: Майли Сайрус, Джереми Пивен, Майк О’Мэлли, Джошуа Боуман, Лорен МакНайт, Келли Осборн, Элоиз Мамфорд, Меган Парк, Морган Кэлхун, Алексис Нэп
Описание: Главная героиня — Молли — частный детектив, нанятый ФБР для расследования одного важного дела. Девушка отправляется в колледж, чтобы под прикрытием попасть в тайное женское общество.

Релиз: fanatus
Качество видео: BDRip (AVC)
Исходник: BDRemux 1080p [So.Undercover.2012 Blu-ray 1080p AVC Dolby TrueHD Audio 5.1-HDRoad]
Контейнер: MKV
Видео: MPEG-4 AVC, 1770 kbps , 1024x426 (2.40:1), 23.976 fps, 0.169 bit/pixel
Аудио: русский (AC3, 6 ch, 48 kHz, 448 kbps)
Формат субтитров: softsub (SRT)
Главы: есть

MediaInfo

General
Unique ID : 253039636273687025598383538030056315836 (0xBE5DA9487147C1499FF02FBD9F941BBC)
Complete name : D:\Agent.pod.prikrytiem.2012.x264.BDRip.(AVC).fanatus.mkv
Format : Matroska
Format version : Version 2
File size : 1.45 GiB
Duration : 1h 33mn
Overall bit rate : 2 214 Kbps
Movie name : So Undercover (2012) - fanatus
Encoded date : UTC 2013-05-03 17:52:49
Writing application : mkvmerge v3.4.0 ('Rapunzel') сборка от May 15 2010 09:38:20
Writing library : libebml v0.8.0 + libmatroska v0.9.0
Video
ID : 1
Format : AVC
Format/Info : Advanced Video Codec
Format profile : High@L4.1
Format settings, CABAC : Yes
Format settings, ReFrames : 12 frames
Codec ID : V_MPEG4/ISO/AVC
Duration : 1h 33mn
Bit rate : 1 770 Kbps
Width : 1 024 pixels
Height : 426 pixels
Display aspect ratio : 2.40:1
Frame rate : 23.976 fps
Color space : YUV
Chroma subsampling : 4:2:0
Bit depth : 8 bits
Scan type : Progressive
Bits/(Pixel*Frame) : 0.169
Stream size : 1.13 GiB (78%)
Title : So Undercover (2012)
Writing library : x264 core 132 r2309 3b1f1f7
Encoding settings : cabac=1 / ref=12 / deblock=1:-2:-2 / analyse=0x3:0x113 / me=umh / subme=11 / psy=1 / psy_rd=1.05:0.05 / mixed_ref=1 / me_range=48 / chroma_me=1 / trellis=2 / 8x8dct=1 / cqm=0 / deadzone=21,11 / fast_pskip=0 / chroma_qp_offset=-3 / threads=16 / lookahead_threads=3 / sliced_threads=0 / nr=0 / decimate=0 / interlaced=0 / bluray_compat=0 / constrained_intra=0 / bframes=12 / b_pyramid=2 / b_adapt=2 / b_bias=0 / direct=3 / weightb=1 / open_gop=0 / weightp=2 / keyint=240 / keyint_min=23 / scenecut=40 / intra_refresh=0 / rc_lookahead=240 / rc=2pass / mbtree=0 / bitrate=1770 / ratetol=1.0 / qcomp=0.65 / qpmin=0 / qpmax=69 / qpstep=4 / cplxblur=20.0 / qblur=0.5 / vbv_maxrate=50000 / vbv_bufsize=62500 / nal_hrd=none / ip_ratio=1.40 / pb_ratio=1.30 / aq=2:0.90
Language : English
Default : Yes
Forced : No
Audio
ID : 2
Format : AC-3
Format/Info : Audio Coding 3
Mode extension : CM (complete main)
Format settings, Endianness : Big
Codec ID : A_AC3
Duration : 1h 33mn
Bit rate mode : Constant
Bit rate : 448 Kbps
Channel(s) : 6 channels
Channel positions : Front: L C R, Side: L R, LFE
Sampling rate : 48.0 KHz
Bit depth : 16 bits
Compression mode : Lossy
Stream size : 300 MiB (20%)
Title : Dub
Language : Russian
Default : Yes
Forced : No
Text #1
ID : 3
Format : UTF-8
Codec ID : S_TEXT/UTF8
Codec ID/Info : UTF-8 Plain Text
Title : R5
Language : Russian
Default : No
Forced : No
Text #2
ID : 4
Format : UTF-8
Codec ID : S_TEXT/UTF8
Codec ID/Info : UTF-8 Plain Text
Title : SDH
Language : English
Default : No
Forced : No
Menu
00:00:00.000 : :Chapter 01
00:05:33.207 : :Chapter 02
00:15:50.908 : :Chapter 03
00:23:04.383 : :Chapter 04
00:30:41.673 : :Chapter 05
00:38:10.997 : :Chapter 06
00:47:39.398 : :Chapter 07
00:53:14.900 : :Chapter 08
01:03:10.828 : :Chapter 09
01:14:29.089 : :Chapter 10
01:21:25.589 : :Chapter 11
01:29:05.298 : :Chapter 12

x264 [info]

---[NoImage] raw [info]: 1024x426p 1:1 @ 24000/1001 fps (cfr)
---[NoImage] x264 [info]: using SAR=1/1
---[NoImage] x264 [info]: using cpu capabilities: MMX2 SSE2Fast SSSE3 SSE4.2 AVX
---[NoImage] x264 [info]: profile High, level 4.1
---[NoImage]
---[NoImage] x264 [info]: frame I:1325 Avg QP:16.16 size: 69351
---[NoImage] x264 [info]: frame P:32239 Avg QP:20.04 size: 18797
---[NoImage] x264 [info]: frame B:101147 Avg QP:22.01 size: 5351
---[NoImage] x264 [info]: consecutive B-frames: 3.1% 3.7% 12.6% 23.5% 20.9% 27.7% 4.5% 1.6% 0.9% 0.5% 0.5% 0.2% 0.3%
---[NoImage] x264 [info]: mb I I16..4: 6.4% 69.9% 23.7%
---[NoImage] x264 [info]: mb P I16..4: 0.8% 8.2% 1.7% P16..4: 34.4% 37.0% 11.9% 0.0% 0.0% skip: 6.1%
---[NoImage] x264 [info]: mb B I16..4: 0.1% 0.7% 0.1% B16..8: 34.1% 18.6% 2.9% direct: 3.8% skip:39.6% L0:39.8% L1:46.1% BI:14.0%
---[NoImage] x264 [info]: 8x8 transform intra:75.4% inter:64.7%
---[NoImage] x264 [info]: direct mvs spatial:98.0% temporal:2.0%
---[NoImage] x264 [info]: coded y,uvDC,uvAC intra: 88.6% 90.4% 73.6% inter: 18.2% 20.1% 10.7%
---[NoImage] x264 [info]: i16 v,h,dc,p: 18% 11% 7% 65%
---[NoImage] x264 [info]: i8 v,h,dc,ddl,ddr,vr,hd,vl,hu: 11% 7% 3% 10% 14% 16% 13% 14% 12%
---[NoImage] x264 [info]: i4 v,h,dc,ddl,ddr,vr,hd,vl,hu: 14% 7% 3% 9% 15% 16% 13% 12% 11%
---[NoImage] x264 [info]: i8c dc,h,v,p: 40% 19% 21% 20%
---[NoImage] x264 [info]: Weighted P-Frames: Y:2.7% UV:1.4%
---[NoImage] x264 [info]: ref P L0: 53.1% 12.1% 15.1% 5.0% 3.9% 2.8% 2.4% 1.3% 1.2% 1.0% 1.0% 1.0% 0.2% 0.0%
---[NoImage] x264 [info]: ref B L0: 79.5% 9.6% 4.1% 1.9% 1.4% 1.1% 0.9% 0.5% 0.5% 0.3% 0.2%
---[NoImage] x264 [info]: ref B L1: 93.3% 6.7%
---[NoImage] x264 [info]: kb/s:1764.35
---[NoImage] encoded 134711 frames, 11.30 fps, 1764.35 kb/s

Скриншот c названием фильма

Показать сообщения:    

Текущее время: Сегодня 04:48

Часовой пояс: GMT



Вы не можете начинать темы
Вы не можете отвечать на сообщения
Вы не можете редактировать свои сообщения
Вы не можете удалять свои сообщения
Вы не можете голосовать в опросах
Вы не можете прикреплять файлы к сообщениям
Вы не можете скачивать файлы
Наши партнеры: интернет магазин Ивановского трикотажа textilla.ru