Важное объявление!
У Нас Все раздачи мультитрекерные, при нуле пиров в релизах, можете смело вставать на закачку!
 
Автор Сообщение

HUNTER

Стаж:
4 года 4 месяца
Сообщений:
56749

Репутация: 101

[+] [-]
Вне форума [Профиль] [ЛС]

Аврал на палубе / Hit The Deck-
Год выпуска: 1955
Страна: США
Жанр: комедия, музыкальный
Продолжительность: 01:52:18
Перевод: Одноголосый закадровый – binjak
Оригинальная аудиодорожка: Английская
Cубтитры: Русские (binjak), английские (полные, для слабослышащих)-Режиссер: Рой Роулэнд / Roy Rowland
В ролях: Джейн Пауэлл / Jane Powell, Тони Мартин / Tony Martin, Дебби Рейнолдс / Debbie Reynolds, Уолтер Пиджон / Walter Pidgeon, Вик Дамоне (Вик Дэймон) / Vic Damone, Джин Рэймонд / Gene Raymond, Энн Миллер / Ann Miller, Расс Тэмблин / Russ Tamblyn, Дж. Кэролл Нейш / J. Carrol Naish, Кэй Армен / Kay Armen-Описание:
Трое приятелей-моряков получают краткосрочный отпуск и приезжают в родной Сан-Франциско. Здесь они, как полагается, попадают в забавные и опасные ситуации, куда оказываются втянутыми артистки варьете, хозяин цветочного магазина, домохозяйка, контр-адмирал с дочерью, а продюсер шоу "Аврал на палубе" в конце концов получает фонарь и под второй глаз. Но традиционный голливудский хэппи-энд, естественно, венчает дело. В фильме много красивых танцев и прекрасной музыки, написанной знаменитым Винсентом Юмансом (автором вечнозеленой Tea For Two)- | IMDb | Сэмпл-Качество: BDRip 720p (DON)
Контейнер: MKV
Видео: x264, 1280x500 (2.56:1), 23.976 fps, 5997 kbps
Аудио 1: Русский AC3 5.1, 48 kHz, 448 kbps
Аудио 2: Английский AC3 5.1, 48 kHz, 640 kbps

Скриншоты

source - encode


MI

nfo
Release info
RELEASE NAME..: Hit.the.Deck.1955.720p.BluRay.DD5.1.x264-DON
RELEASE SIZE..: 5.20 GiB
RUNTIME.......: 01:52:18
VIDEO CODEC...: x264, CRF=16.5, L4.1
FRAMERATE.....: 23.976 fps
BITRATE.......: 5997 kbps
RESOLUTION....: 1280x500p
AUDIO.........: English DD 5.1 @ 640 kbps
SUBTITLES.....: English
CHAPTERS......: Included
SOURCE........: Hit the Deck 1955 1080p Blu-ray AVC DTS-HD MA 5.1
RELEASE DATE..: 25/06/2014
ENCODER.......: MrDelRey
x264log
x264 [info]: frame I:780 Avg QP:17.01 size:123047
x264 [info]: frame P:32132 Avg QP:19.16 size: 52012
x264 [info]: frame B:128632 Avg QP:20.58 size: 25528
encoded 161544 frames, 6.044 fps, 5997.14 kb/s
General
Unique ID : 233108680909324538324182238842573912646 (0xAF5F1950979357048DD6B77E46B57A46)
Complete name : Hit.the.Deck.1955.720.BluRay.DD5.1.x264-DON.mkv
Format : Matroska
Format version : Version 2
File size : 5.56 GiB
Duration : 1h 52mn
Overall bit rate : 7 088 Kbps
Movie name : Hit the Deck / Аврал на палубе (1955) – RuTracker
Encoded date : UTC 2015-05-07 16:57:51
Writing application : mkvmerge v7.5.0 ('Glass Culture') 64bit built on Jan 4 2015 16:48:44
Writing library : libebml v1.3.1 + libmatroska v1.4.2
Attachements : cover.jpg
Video
ID : 1
Format : AVC
Format/Info : Advanced Video Codec
Format profile : High@L4.1
Format settings, CABAC : Yes
Format settings, ReFrames : 12 frames
Codec ID : V_MPEG4/ISO/AVC
Duration : 1h 52mn
Bit rate : 5 859 Kbps
Width : 1 280 pixels
Height : 500 pixels
Display aspect ratio : 2.560
Frame rate mode : Constant
Frame rate : 23.976 fps
Color space : YUV
Chroma subsampling : 4:2:0
Bit depth : 8 bits
Scan type : Progressive
Bits/(Pixel*Frame) : 0.382
Stream size : 4.60 GiB (83%)
Title : Hit.the.Deck.1955.720.BluRay.DD5.1.x264-DON
Writing library : x264 core 142 r2431+42 c69a006 tMod [8-bit@4:2:0 X86_64]
Encoding settings : cabac=1 / ref=12 / deblock=1:-2:-2 / analyse=0x3:0x113 / me=umh / subme=11 / psy=1 / fade_compensate=0.00 / psy_rd=1.05:0.00 / mixed_ref=1 / me_range=24 / chroma_me=1 / trellis=2 / 8x8dct=1 / cqm=0 / deadzone=21,11 / fast_pskip=0 / chroma_qp_offset=-2 / threads=6 / lookahead_threads=1 / sliced_threads=0 / nr=0 / decimate=0 / interlaced=0 / bluray_compat=0 / constrained_intra=0 / fgo=0 / bframes=10 / b_pyramid=2 / b_adapt=2 / b_bias=0 / direct=3 / weightb=1 / open_gop=0 / weightp=2 / keyint=250 / keyint_min=23 / scenecut=40 / intra_refresh=0 / rc=crf / mbtree=0 / crf=16.5000 / qcomp=0.60 / qpmin=0:0:0 / qpmax=69:69:69 / qpstep=4 / ip_ratio=1.40 / pb_ratio=1.20 / aq=1:0.75 / aq-sensitivity=10.00 / aq-factor=1.00:1.00:1.00 / aq2=0 / aq3=0
Language : English
Default : Yes
Forced : No
Audio #1
ID : 2
Format : AC-3
Format/Info : Audio Coding 3
Mode extension : CM (complete main)
Format settings, Endianness : Big
Codec ID : A_AC3
Duration : 1h 52mn
Bit rate mode : Constant
Bit rate : 448 Kbps
Channel(s) : 6 channels
Channel positions : Front: L C R, Side: L R, LFE
Sampling rate : 48.0 KHz
Bit depth : 16 bits
Compression mode : Lossy
Stream size : 360 MiB (6%)
Title : VO – binjak
Language : Russian
Default : Yes
Forced : No
Audio #2
ID : 3
Format : AC-3
Format/Info : Audio Coding 3
Mode extension : CM (complete main)
Format settings, Endianness : Big
Codec ID : A_AC3
Duration : 1h 52mn
Bit rate mode : Constant
Bit rate : 640 Kbps
Channel(s) : 6 channels
Channel positions : Front: L C R, Side: L R, LFE
Sampling rate : 48.0 KHz
Bit depth : 16 bits
Compression mode : Lossy
Stream size : 514 MiB (9%)
Title : Original
Language : English
Default : No
Forced : No
Text #1
ID : 4
Format : UTF-8
Codec ID : S_TEXT/UTF8
Codec ID/Info : UTF-8 Plain Text
Title : binjak
Language : Russian
Default : No
Forced : No
Text #2
ID : 5
Format : UTF-8
Codec ID : S_TEXT/UTF8
Codec ID/Info : UTF-8 Plain Text
Language : English
Default : No
Forced : No
Text #3
ID : 6
Format : UTF-8
Codec ID : S_TEXT/UTF8
Codec ID/Info : UTF-8 Plain Text
Title : SDH
Language : English
Default : No
Forced : No
Menu
00:00:00.000 : en:00:00:00.000
00:02:00.120 : en:00:02:00.120
00:04:41.114 : en:00:04:41.114
00:11:46.706 : en:00:11:46.706
00:15:11.911 : en:00:15:11.911
00:22:10.329 : en:00:22:10.329
00:27:53.672 : en:00:27:53.672
00:31:53.912 : en:00:31:53.912
00:34:59.097 : en:00:34:59.097
00:40:04.902 : en:00:40:04.902
00:47:07.825 : en:00:47:07.825
00:50:27.024 : en:00:50:27.024
00:53:28.205 : en:00:53:28.205
00:59:14.551 : en:00:59:14.551
01:02:52.769 : en:01:02:52.769
01:08:07.500 : en:01:08:07.500
01:09:47.183 : en:01:09:47.183
01:14:37.473 : en:01:14:37.473
01:20:34.830 : en:01:20:34.830
01:23:50.025 : en:01:23:50.025
01:27:17.232 : en:01:27:17.232
01:31:09.464 : en:01:31:09.464
01:34:21.656 : en:01:34:21.656
01:39:11.946 : en:01:39:11.946
01:42:14.128 : en:01:42:14.128
01:47:59.473 : en:01:47:59.473
01:51:42.696 : en:01:51:42.696

_________________
Показать сообщения:    

Текущее время: Сегодня 22:06

Часовой пояс: GMT



Вы не можете начинать темы
Вы не можете отвечать на сообщения
Вы не можете редактировать свои сообщения
Вы не можете удалять свои сообщения
Вы не можете голосовать в опросах
Вы не можете прикреплять файлы к сообщениям
Вы не можете скачивать файлы