Важное объявление!
У Нас Все раздачи мультитрекерные, при нуле пиров в релизах, можете смело вставать на закачку!
 
Автор Сообщение

HUNTER

Стаж:
4 года 4 месяца
Сообщений:
56772

Репутация: 101

[+] [-]
Вне форума [Профиль] [ЛС]

Авиатор / The Aviator
Страна: США
Студия: United Artists, Mace Neufeld Productions
Жанр: приключения, драма
Год выпуска: 1985
Продолжительность: 01:32:37
Перевод 1: Профессиональный (двухголосый закадровый) НТВ+
Перевод 2: Авторский (одноголосый закадровый) А. Алексеев
Cубтитры: английские
Оригинальная аудиодорожка: английский
Режиссер: Джордж Миллер / George Miller
В ролях: Кристофер Рив / Christopher Reeve, Розанна Аркетт / Rosanna Arquette, Джек Уорден / Jack Warden, Сэм Уонамейкер / Sam Wanamaker, Скотт Уилсон / Scott Wilson, Тайн Дейли / Tyne Daly, Марша Стрэссмен / Marcia Strassman, Уилл Хэр / Will Hare, Роберт Пирс / Robert Pierce
Описание: Действие фильма происходит в 20-е годы. Летчик (Рив) вынужден взять в полет взбалмошную пассажирку (Аркетт). Летали тогда на бипланах, сюжет разыгрывает драму выживания в безлюдной, дикой местности. Поначалу отношения летчика и пассажирки были как у кошки с собакой. Потом их самолет разбивается в горах, остальное экранное время они заботятся друг о друге и сражаются с волками. А тем временем в маленьком аэропорту суровый Джек Уорден, управляющий этой почтовой линией, сообщает противному и злому отцу пропавшей пассажирки (Сэм Уонамэйкер), что ребята, летающие с почтой, - просто полоумные калеки с наркотической зависимостью от штурвала.
Съемки велись в Югославии, за основу взят роман авиатора Эрнеста Ганна.
II Сэмпл II IMDB II
Доп. информация:
Дополнительные дороги и субтитры взяты с этой раздачи спасибо dvdbox
Тип релиза: HDTV 1080i
Контейнер: MKV
Видео: AVC 1920x1080 (16:9) 25.0fps Bit rate 6888Kbps
Аудио 1: MP2 48.0 KHz 2ch. 192kbps rus dvo
Аудио 2: AC3 48.0 KHz 2ch. 192kbps rus avo
Аудио 3: AC3 48.0 KHz 2ch. 192kbps eng
Формат субтитров: softsub (SRT)
MediaInfo
Общее
Уникальный идентификатор : 222005513533151496674530765771644069520 (0xA704B4E5EAC5BAF2B380B57B880FE690)
Полное имя : E:\torrent\The.Aviator.1985.HDTV1080i.mkv
Формат : Matroska
Версия формата : Version 4 / Version 2
Размер файла : 4,46 Гбайт
Продолжительность : 1 ч. 32 м.
Общий поток : 6888 Кбит/сек
Дата кодирования : UTC 2014-05-13 01:24:07
Программа кодирования : mkvmerge v6.9.1 ('Blue Panther') 32bit built on Apr 18 2014 18:15:44
Библиотека кодирования : libebml v1.3.0 + libmatroska v1.4.1
Видео
Идентификатор : 1
Формат : AVC
Формат/Информация : Advanced Video Codec
Профиль формата : High@L4.0
Параметр CABAC формата : Да
Параметр ReFrames формата : 3 кадра
Параметр GOP формата : M=4, N=32
Идентификатор кодека : V_MPEG4/ISO/AVC
Продолжительность : 1 ч. 32 м.
Битрейт : 6175 Кбит/сек
Ширина : 1920 пикселей
Высота : 1080 пикселей
Соотношение сторон : 16:9
Режим частоты кадров : Постоянный
Частота кадров : 25,000 кадров/сек
Стандарт вещания : Component
Цветовое пространство : YUV
Субдискретизация насыщенности : 4:2:0
Битовая глубина : 8 бит
Тип развёртки : Чересстрочная
Порядок развёртки : Верхнее поле первое
Бит/(Пиксели*Кадры) : 0.119
Размер потока : 3,99 Гбайт (90%)
Заголовок : The.Aviator.1985.HDTV1080i
Default : Да
Forced : Нет
Основные цвета : BT.709
Характеристики трансфера : BT.709
Коэффициенты матрицы : BT.709
Аудио #1
Идентификатор : 2
Формат : MPEG Audio
Версия формата : Version 1
Профиль формата : Layer 2
Идентификатор кодека : A_MPEG/L2
Идентификатор кодека/Подсказка : MP2
Продолжительность : 1 ч. 32 м.
Вид битрейта : Постоянный
Битрейт : 192 Кбит/сек
Каналы : 2 канала
Частота : 48,0 КГц
Метод сжатия : С потерями
Размер потока : 127 Мбайт (3%)
Заголовок : The.Aviator_MP2_2ch_rus_DVO_NTV+
Язык : Russian
Default : Да
Forced : Нет
Аудио #2
Идентификатор : 3
Формат : AC-3
Формат/Информация : Audio Coding 3
Расширение режима : CM (complete main)
Параметр Endianness формата : Big
Идентификатор кодека : A_AC3
Продолжительность : 1 ч. 32 м.
Вид битрейта : Постоянный
Битрейт : 192 Кбит/сек
Каналы : 2 канала
Расположение каналов : Front: L R
Частота : 48,0 КГц
Битовая глубина : 16 бит
Метод сжатия : С потерями
Размер потока : 127 Мбайт (3%)
Заголовок : The.Aviator_AC3_2ch_rus_AVO_A. Alekseev
Язык : Russian
Default : Нет
Forced : Нет
Аудио #3
Идентификатор : 4
Формат : AC-3
Формат/Информация : Audio Coding 3
Расширение режима : CM (complete main)
Параметр Endianness формата : Big
Идентификатор кодека : A_AC3
Продолжительность : 1 ч. 32 м.
Вид битрейта : Постоянный
Битрейт : 192 Кбит/сек
Каналы : 2 канала
Расположение каналов : Front: L R
Частота : 48,0 КГц
Битовая глубина : 16 бит
Метод сжатия : С потерями
Размер потока : 127 Мбайт (3%)
Заголовок : The.Aviator_AC3_2ch_original eng
Язык : English
Default : Нет
Forced : Нет
Текст
Идентификатор : 5
Формат : UTF-8
Идентификатор кодека : S_TEXT/UTF8
Идентификатор кодека/Информация : UTF-8 Plain Text
Заголовок : The.Aviator_subtitle eng
Язык : English
Default : Нет
Forced : Нет
Скриншот с названием фильмаСкриншотыСравнение с DVD

_________________
Показать сообщения:    

Текущее время: Сегодня 09:43

Часовой пояс: GMT



Вы не можете начинать темы
Вы не можете отвечать на сообщения
Вы не можете редактировать свои сообщения
Вы не можете удалять свои сообщения
Вы не можете голосовать в опросах
Вы не можете прикреплять файлы к сообщениям
Вы не можете скачивать файлы