Важное объявление!
У Нас Все раздачи мультитрекерные, при нуле пиров в релизах, можете смело вставать на закачку!
 
Автор Сообщение

HUNTER

Стаж:
4 года 4 месяца
Сообщений:
56808

Репутация: 101

[+] [-]
Вне форума [Профиль] [ЛС]

Авария / Breakdown
Страна: США
Студия: Dino De Laurentiis Productions, Paramount Pictures, Spelling Films
Жанр: боевик, триллер, драма, криминал, детектив
Год выпуска: 1997
Продолжительность: 01:29:16
Перевод 1: Профессиональный, многоголосый закадровый.
Перевод 2: Профессиональный, двухголосый закадровый.
Перевод 3: Профессиональный, многоголосый закадровый.
Перевод 4: Профессиональный, многоголосый закадровый.
Перевод 5: Профессиональный, двухголосый закадровый.
Перевод 6: Авторский (одноголосый закадровый).
Перевод 7: Авторский (одноголосый закадровый).
Cубтитры: английские, русские
Оригинальная аудиодорожка: английский
Режиссер:
Джонатан Мостоу /Jonathan Mostow
В ролях:
Курт Расселл, Джей Ти Уолш, Кэтлин Куинлен, М.С. Гэйни, Джек Ноузуорти, Рекс Линн, Ритч Бринкли, Мойра Харрис, Ким Робиллард, Томас Копаче, Винсент Берри, Хелен Даффи, Эрик Джордж, Энсел Кук, Морган Х. Маргулис, Джин Хартлайн, Брэд Спенсер, Стив Уайт, Марк Энтони Уильямс, Рэймонд Т. Уильямс
Описание:
Джефф и Эми Тейлор решили переехать к новому месту жительства в Сан-Диего на дорогом джипе. По дороге Джефф чуть не врезался в пикап с двумя местными отморозками. А когда джип неожиданно заглох на обочине пустынной трассы, водитель попутного трейлера Рэд Барр предложил подвезти Эми до ближайшего телефона, а Джефф остался охранять машину.
С этого момента его жизнь превращается в кошмарный сон. В придорожном кафе, где он договорился встретиться с женой, Джефф не находит Эми. Оказывается, доморощенные бандиты решили взять за похищенную женщину выкуп. И тогда миролюбивый обыватель Джефф, вырвавшись из-под стволов вымогателей, сам превращается в безжалостного охотника…
Доп. информация:
Видео, звуковые дорожки, субтитры взяты с HDTV-Rip скачанный в сети. Спасибо maksnew87. Меню взято с [url=viewtopic.php?t=393037]DVD "Карусель"[/url] и перерисовано под данный релиз. Кнопка "бонус" на главном меню не активна. Главы взяты с DVD. Видео сжато Rhozet Carbon Coder в VBR в два прохода в пал прогрессив, по [url=viewtopic.php?t=1828666]инструкции[/url] за которую спасибо Mikky72. Диск собран с помощью Sonic Scenarist + DVDRemake Pro. За помощь при создании релиза спасибо Нордер.
Меню:
Есть, анимированное и озвученное. Меню настроек статичное, не озвученное. Язык русский / английский.
Сэмпл
Тип релиза: HDTV> DVD9 (Custom)
Контейнер: DVD-Video
Видео: NTSC 16:9 (720x480) VBR, Auto Letterboxed
Аудио 1: Russian AC3/ 5.1 / 48 kHz/ 448 kbps, Профессиональный, многоголосый - «НТВ+»
Аудио 2: Russian AC3/ 5.1 / 48 kHz/ 384 kbps, Профессиональный, двухголосый - «Twister»
Аудио 3: Russian AC3/ 2.0 / 48 kHz/ 192 kbps, Профессиональный, многоголосый - «РТР»
Аудио 4: Russian AC3/ 2.0 / 48 kHz/ 192 kbps, Профессиональный, многоголосый - «СТС»
Аудио 5: Russian AC3/ 2.0 / 48 kHz/ 192 kbps, Профессиональный, двухголосый - «TV1000»
Аудио 6: Russian AC3/ 5.1 / 48 kHz/ 384 kbps, Авторский – А. Гаврилов
Аудио 7: Russian AC3/ 2.0 / 48 kHz/ 192 kbps, Авторский – Ю. Живов
Аудио 8: English AC3/ 5.1/ 48 kHz/ 384 kbps, ОригиналРелиз группа

Информация по сборке релиза

Используемый софт
MKVExtractGUI2 - разборка HDTV
DVDSubEdit - разборка меню DVD
UsEac3To - распаковка на wav
Vegas Pro - сборка звуковых дорожек ac3
Subtitles Creator 2.2 подготовка субтитров для Scenarist
Carbon Coder - конвертация видео
Adobe Photoshop - работа с меню
Sonic Scenarist / DVDRemake Pro - сборка DVD

MediaInfo

Общее
Уникальный идентификатор : 225398532468531941053443155736301631698 (0xA9922DA5BCE1BF81B02E3CF65F4378D2)
Полное имя : I:\Downloads\Breakdown (1997) HDTV 1080i -BLUEBIRD.mkv
Формат : Matroska
Версия формата : Version 4 / Version 2
Размер файла : 12,2 Гбайт
Продолжительность : 1 ч. 37 м.
Общий поток : 17,8 Мбит/сек
Название фильма : Breakdown - La trappola
Дата кодирования : UTC 2016-06-19 13:37:36
Программа кодирования : mkvmerge v6.9.1 ('Blue Panther') 64bit built on Apr 18 2014 18:23:38
Библиотека кодирования : libebml v1.3.0 + libmatroska v1.4.1
Видео
Идентификатор : 1
Формат : AVC
Формат/Информация : Advanced Video Codec
Профиль формата : Main@L4.0
Параметр CABAC формата : Да
Параметр ReFrames формата : 2 кадра
Идентификатор кодека : V_MPEG4/ISO/AVC
Продолжительность : 1 ч. 37 м.
Битрейт : 15,1 Мбит/сек
Ширина : 1920 пикселей
Высота : 1080 пикселей
Соотношение сторон : 16:9
Режим частоты кадров : Постоянный
Частота кадров : 25,000 кадров/сек
Цветовое пространство : YUV
Субдискретизация насыщенности : 4:2:0
Битовая глубина : 8 бит
Тип развёртки : Прогрессивная
Бит/(Пиксели*Кадры) : 0.291
Размер потока : 10,3 Гбайт (84%)
Default : Да
Forced : Нет
Основные цвета : BT.709
Характеристики трансфера : BT.709
Коэффициенты матрицы : BT.709
Аудио #1
Идентификатор : 2
Формат : AC-3
Формат/Информация : Audio Coding 3
Расширение режима : CM (complete main)
Параметр Endianness формата : Big
Идентификатор кодека : A_AC3
Продолжительность : 1 ч. 37 м.
Вид битрейта : Постоянный
Битрейт : 448 Кбит/сек
Каналы : 6 каналов
Расположение каналов : Front: L C R, Side: L R, LFE
Частота : 48,0 КГц
Битовая глубина : 16 бит
Метод сжатия : С потерями
Размер потока : 313 Мбайт (3%)
Заголовок : НТВ+
Язык : Russian
Default : Да
Forced : Нет
Аудио #2
Идентификатор : 3
Формат : AC-3
Формат/Информация : Audio Coding 3
Расширение режима : CM (complete main)
Параметр Endianness формата : Big
Идентификатор кодека : A_AC3
Продолжительность : 1 ч. 37 м.
Вид битрейта : Постоянный
Битрейт : 384 Кбит/сек
Каналы : 6 каналов
Расположение каналов : Front: L C R, Side: L R, LFE
Частота : 48,0 КГц
Битовая глубина : 16 бит
Метод сжатия : С потерями
Размер потока : 269 Мбайт (2%)
Заголовок : Twister
Язык : Russian
Default : Нет
Forced : Нет
Аудио #3
Идентификатор : 4
Формат : AC-3
Формат/Информация : Audio Coding 3
Расширение режима : CM (complete main)
Параметр Endianness формата : Big
Идентификатор кодека : A_AC3
Продолжительность : 1 ч. 37 м.
Вид битрейта : Постоянный
Битрейт : 256 Кбит/сек
Каналы : 2 канала
Расположение каналов : Front: L R
Частота : 48,0 КГц
Битовая глубина : 16 бит
Метод сжатия : С потерями
Размер потока : 179 Мбайт (1%)
Заголовок : СТС
Язык : Russian
Default : Нет
Forced : Нет
Аудио #4
Идентификатор : 5
Формат : AC-3
Формат/Информация : Audio Coding 3
Расширение режима : CM (complete main)
Параметр Endianness формата : Big
Идентификатор кодека : A_AC3
Продолжительность : 1 ч. 37 м.
Вид битрейта : Постоянный
Битрейт : 192 Кбит/сек
Каналы : 2 канала
Расположение каналов : Front: L R
Частота : 48,0 КГц
Битовая глубина : 16 бит
Метод сжатия : С потерями
Размер потока : 134 Мбайт (1%)
Заголовок : РТР
Язык : Russian
Default : Нет
Forced : Нет
Аудио #5
Идентификатор : 6
Формат : AC-3
Формат/Информация : Audio Coding 3
Расширение режима : CM (complete main)
Параметр Endianness формата : Big
Идентификатор кодека : A_AC3
Продолжительность : 1 ч. 37 м.
Вид битрейта : Постоянный
Битрейт : 192 Кбит/сек
Каналы : 2 канала
Расположение каналов : Front: L R
Частота : 48,0 КГц
Битовая глубина : 16 бит
Метод сжатия : С потерями
Размер потока : 134 Мбайт (1%)
Заголовок : TV1000
Язык : Russian
Default : Нет
Forced : Нет
Аудио #6
Идентификатор : 7
Формат : AC-3
Формат/Информация : Audio Coding 3
Расширение режима : CM (complete main)
Параметр Endianness формата : Big
Идентификатор кодека : A_AC3
Продолжительность : 1 ч. 37 м.
Вид битрейта : Постоянный
Битрейт : 384 Кбит/сек
Каналы : 6 каналов
Расположение каналов : Front: L C R, Side: L R, LFE
Частота : 48,0 КГц
Битовая глубина : 16 бит
Метод сжатия : С потерями
Размер потока : 269 Мбайт (2%)
Заголовок : Гаврилов
Язык : Russian
Default : Нет
Forced : Нет
Аудио #7
Идентификатор : 8
Формат : AC-3
Формат/Информация : Audio Coding 3
Расширение режима : CM (complete main)
Параметр Endianness формата : Big
Идентификатор кодека : A_AC3
Продолжительность : 1 ч. 37 м.
Вид битрейта : Постоянный
Битрейт : 192 Кбит/сек
Каналы : 2 канала
Расположение каналов : Front: L R
Частота : 48,0 КГц
Битовая глубина : 16 бит
Метод сжатия : С потерями
Размер потока : 134 Мбайт (1%)
Заголовок : Живов
Язык : Russian
Default : Нет
Forced : Нет
Аудио #8
Идентификатор : 9
Формат : AC-3
Формат/Информация : Audio Coding 3
Расширение режима : CM (complete main)
Параметр Endianness формата : Big
Идентификатор кодека : A_AC3
Продолжительность : 1 ч. 37 м.
Вид битрейта : Постоянный
Битрейт : 384 Кбит/сек
Каналы : 6 каналов
Расположение каналов : Front: L C R, Side: L R, LFE
Частота : 48,0 КГц
Битовая глубина : 16 бит
Метод сжатия : С потерями
Размер потока : 269 Мбайт (2%)
Язык : English
Default : Нет
Forced : Нет
Текст #1
Идентификатор : 10
Формат : UTF-8
Идентификатор кодека : S_TEXT/UTF8
Идентификатор кодека/Информация : UTF-8 Plain Text
Язык : Russian
Default : Нет
Forced : Нет
Текст #2
Идентификатор : 11
Формат : UTF-8
Идентификатор кодека : S_TEXT/UTF8
Идентификатор кодека/Информация : UTF-8 Plain Text
Язык : English
Default : Да
Forced : Нет

DVDInfo

Audio #1: AC3, 3/2 (L,C,R,SL,SR)+LFE ch, 448 kbps, Delay 0 mSec
Audio #2: AC3, 3/2 (L,C,R,SL,SR)+LFE ch, 384 kbps, Delay 0 mSec
Audio #3: AC3, 2/0 (L,R) ch, 192 kbps, Delay 0 mSec
Audio #4: AC3, 2/0 (L,R) ch, 192 kbps, Delay 0 mSec
Audio #5: AC3, 2/0 (L,R) ch, 192 kbps, Delay 0 mSec
Audio #6: AC3, 3/2 (L,C,R,SL,SR)+LFE ch, 384 kbps, Delay 0 mSec
Audio #7: AC3, 2/0 (L,R) ch, 192 kbps, Delay 0 mSec
Audio #8: AC3, 3/2 (L,C,R,SL,SR)+LFE ch, 384 kbps, Delay 0 mSec
Title: Breakdown_1997BD-DVD
Size: 6.09 Gb ( 6 384 720,00 KBytes ) - DVD-9
Enabled regions: 1, 2, 3, 4, 5, 6, 7, 8
VTS_01 :
Play Length: 01:29:16
Video: PAL 16:9 (720x576) VBR, Auto Letterboxed
Audio:
Russian (Dolby AC3, 6 ch)
Russian (Dolby AC3, 6 ch)
Russian (Dolby AC3, 2 ch)
Russian (Dolby AC3, 2 ch)
Russian (Dolby AC3, 2 ch)
Russian (Dolby AC3, 6 ch)
Russian (Dolby AC3, 2 ch)
English (Dolby AC3, 6 ch)
Subtitles:
Russian
English

Viewer

Скрипт

LoadPlugin("C:\Program Files (x86)\FFmpegSource2\ffms2.dll") #подключение декодера
FFVideoSource("D:\Video\Breakdown.mkv") #открытие видео
LoadPlugin("C:\Program Files (x86)\AutoYUY2\AutoYUY2.dll") #подключение плагина
AutoYUY2() #конверсия цветового пространства
LoadPlugin("C:\Program Files (x86)\ColorMatrix\ColorMatrix.dll") #подключение плагина
ColorMatrix(mode="Rec.709->Rec.601", inputFR=false, clamp=0) #16-235
AssumeFPS(25) #изменение частоты кадров под стандарт PAL 25 кадров/сек
BicubicResize(720, 576, 0, 0.5) #ресайз методом Catmull-Rom spline
AddBorders (0,0,0,0) #добавление черных полос

Точка перехода

Скриншоты меню

Скриншоты

Проверено на софтовом CyberLink PowerDVD и железном плейере BBK.
Раздавать буду с 9.00 до 23.00 до первых пяти скачавших.
Потом по возможности.

_________________
Показать сообщения:    

Текущее время: Сегодня 14:15

Часовой пояс: GMT



Вы не можете начинать темы
Вы не можете отвечать на сообщения
Вы не можете редактировать свои сообщения
Вы не можете удалять свои сообщения
Вы не можете голосовать в опросах
Вы не можете прикреплять файлы к сообщениям
Вы не можете скачивать файлы