Важное объявление!
У Нас Все раздачи мультитрекерные, при нуле пиров в релизах, можете смело вставать на закачку!
 
Автор Сообщение

HUNTER

Стаж:
4 года 4 месяца
Сообщений:
56808

Репутация: 101

[+] [-]
Вне форума [Профиль] [ЛС]

А зори здесь тихие
Страна: Россия
Жанр: драма, военный, история
Год выпуска: 2015
Продолжительность: 01:50:59
Перевод: Не требуется
Cубтитры: нет
Оригинальная аудиодорожка: русский
Режиссер: Ренат Давлетьяров
В ролях: Пётр Фёдоров, Анастасия Микульчина, Женя Малахова, Агния Кузнецова, Софья Лебедева, Кристина Асмус, Екатерина Вилкова, Анатолий Белый, Дарья Мороз, Виктор Проскурин.
Описание: Май 1942 года. В самый разгар Великой Отечественной войны вдалеке от линии фронта, у забытого богом разъезда, фашисты выбрасывают десант с целью пробраться на Кировскую железную дорогу и Беломорско-Балтийский канал. Это не обычные солдаты-пехотинцы, это опытные, тренированные диверсанты, элита войск СС, «сверхлюди». А против них - старшина Васков и пять девчонок-зенитчиц. Казалось бы, бой местного значения, но на кону - стратегически важная транспортная артерия, соединяющая значимые центры страны. Смогут ли старшина и его хрупкие новобранцы предотвратить нацистскую диверсию, и какой ценой?
Сэмпл: http://multi-up.com/1056712
Тип релиза: WEB-DL 1080p
Контейнер: MKV
Видео: MPEG4 Video (H264) 1920 x 814p, ~ 4668 kbps, 25 fps, 0.119 bit/pixel
Аудио: AC-3, 6 канала, 48,0 КГц, ~384 kbps iTunes
Релиз :

MediaInfo

Общее
Уникальный идентификатор : 245910369376548408439535079872917811506 (0xB9009D496F129C59B35A0A61B7363132)
Полное имя : D:\А зори здесь тихие\A_ZORI_ZDES_TIHIE_WEB_DL_1080p-BLUEBIRD.mkv
Формат : Matroska
Версия формата : Version 4 / Version 2
Размер файла : 4,00 Гбайт
Продолжительность : 1 ч. 50 м.
Общий поток : 5155 Кбит/сек
Название фильма : A_ZORI_ZDES_TIHIE_WEB_DL_1080p-BLUEBIRD
Дата кодирования : UTC 2015-07-02 09:21:21
Программа кодирования : mkvmerge v7.1.0 ('Good Love') 64bit built on Jul 27 2014 13:06:55
Библиотека кодирования : libebml v1.3.0 + libmatroska v1.4.1
DURATION : 01:50:59.424000000
NUMBER_OF_FRAMES : 208107
NUMBER_OF_BYTES : 319652352
_STATISTICS_WRITING_APP : mkvmerge v7.1.0 ('Good Love') 64bit built on Jul 27 2014 13:06:55
_STATISTICS_WRITING_DATE_UTC : 2015-07-02 09:21:21
_STATISTICS_TAGS : BPS DURATION NUMBER_OF_FRAMES NUMBER_OF_BYTES
Видео
Идентификатор : 1
Формат : AVC
Формат/Информация : Advanced Video Codec
Профиль формата : High@L4.0
Параметр CABAC формата : Да
Параметр ReFrames формата : 5 кадров
Идентификатор кодека : V_MPEG4/ISO/AVC
Продолжительность : 1 ч. 50 м.
Битрейт : 4668 Кбит/сек
Ширина : 1920 пикселей
Высота : 814 пикселей
Соотношение сторон : 2,35:1
Режим частоты кадров : Постоянный
Частота кадров : 25,000 кадров/сек
Цветовое пространство : YUV
Субдискретизация насыщенности : 4:2:0
Битовая глубина : 8 бит
Тип развёртки : Прогрессивная
Бит/(Пиксели*Кадры) : 0.119
Размер потока : 3,62 Гбайт (91%)
Заголовок : A_ZORI_ZDES_TIHIE_WEB_DL_1080p-BLUEBIRD
Язык : Russian
Default : Да
Forced : Нет
Основные цвета : BT.709
Характеристики трансфера : BT.709
Коэффициенты матрицы : BT.709
colour_range : Limited
Аудио
Идентификатор : 2
Формат : AC-3
Формат/Информация : Audio Coding 3
Расширение режима : CM (complete main)
Параметр Endianness формата : Big
Идентификатор кодека : A_AC3
Продолжительность : 1 ч. 50 м.
Вид битрейта : Постоянный
Битрейт : 384 Кбит/сек
Каналы : 6 каналов
Расположение каналов : Front: L C R, Side: L R, LFE
Частота : 48,0 КГц
Битовая глубина : 16 бит
Метод сжатия : С потерями
Размер потока : 305 Мбайт (7%)
Заголовок : [ORIGINAL] DD 5.1 @ 384 kbps
Язык : Russian
Default : Да
Forced : Нет
Меню
00:00:00.000 : en:1
00:07:13.000 : en:2
00:14:17.000 : en:3
00:20:11.000 : en:4
00:28:33.000 : en:5
00:34:31.000 : en:6
00:42:11.000 : en:7
00:49:45.000 : en:8
00:56:28.000 : en:9
01:04:07.000 : en:10
01:10:34.000 : en:11
01:17:45.000 : en:12
01:25:21.000 : en:13
01:33:11.000 : en:14
01:40:40.000 : en:15
01:46:16.000 : en:16

Скриншоты


_________________
Показать сообщения:    

Текущее время: Сегодня 13:36

Часовой пояс: GMT



Вы не можете начинать темы
Вы не можете отвечать на сообщения
Вы не можете редактировать свои сообщения
Вы не можете удалять свои сообщения
Вы не можете голосовать в опросах
Вы не можете прикреплять файлы к сообщениям
Вы не можете скачивать файлы