Важное объявление!
У Нас Все раздачи мультитрекерные, при нуле пиров в релизах, можете смело вставать на закачку!
 
Автор Сообщение

Vanya_o3

[Профиль] [ЛС]

Zолушка-
Жанр: мелодрама, комедия
Год выпуска: 2012
Продолжительность: 01:27:40
Режиссер: Сергей Иванов
В ролях: Кристина Асмус (Маша), Никита Ефремов (Паша), Артем Ткаченко (Алексей Королевич), Нонна Гришаева (Фея / Агния), Маргарита Исайкова (девочка), Юрий Стоянов (Чугайнов), Елизавета Боярская (сестрица Полина), Сергей Бурунов (продюсер), Маргарита Бычкова (мачеха), Виталий Гребенников (Яков), Александр Цекало (муж Агнии), Семен Стругачев (папа)...
Описание:
Героиня фильма, Маша Крапивина - пока еще не красавица, и не то чтобы сказочная умница. Обычная девушка, рискнувшая, подобно тысячам ее сверстниц из самых разных уголков страны, покорить Москву, покинув свой родной провинциальный городок. Вечером учится, а с утра до вечера работает «на вредном производстве» - горничной в очень состоятельной семье. Крупу, конечно, не перебирает, но работы хватает: только успевай крутиться, чтобы угодить властной хозяйке и двум ее взбалмошным дочерям. А Маша, между тем, как и миллионы других девчонок, по уши влюблена в известного певца Алексея Королевича. Она - его самая преданная фанатка, увы, без малейшего шанса на знакомство с предметом своих девичьих грёз. И надо же такому случиться - «знатное» семейство получает приглашение на бал, а точнее, закрытую вечеринку, где соберется вся культурная элита страны, а главное - там будет выступать ОН. И совершенно очевидно, что с этой минуты Маша готова на любые жертвы, чтобы тоже оказаться там...- -Исходник: Blu-ray 1080i
Присутствуют оригинальные чапторы-Качество видео: BDRip-AVC
Формат видео: MKV
Видео: 1024x552 (1,855:1), 25 fps, H264 ~ 1928 kbps avg, 0.136 bit/pixel
Аудио: 48 kHz, AC3, 6 ch, 448.00 kbps

MediaInfo

Общее
Полное имя : Zolushka.2012.O.BDRip-AVC.1.46GB.mkv
Формат : Matroska
Версия формата : Version 2
Размер файла : 1,46 Гбайт
Продолжительность : 1 ч. 27 м.
Общий поток : 2377 Кбит/сек
Дата кодирования : UTC 2012-04-16 12:26:03
Программа кодирования : mkvmerge v5.5.0 ('Healer') built on Apr 6 2012 21:43:24
Библиотека кодирования : libebml v1.2.3 + libmatroska v1.3.0
Видео
Идентификатор : 1
Формат : AVC
Формат/Информация : Advanced Video Codec
Профиль формата : High@L4.1
Параметр CABAC формата : Да
Параметр ReFrames формата : 11 кадров
Идентификатор кодека : V_MPEG4/ISO/AVC
Продолжительность : 1 ч. 27 м.
Битрейт : 1928 Кбит/сек
Ширина : 1024 пикселя
Высота : 552 пикселя
Соотношение сторон : 1,855
Частота кадров : 25,000 кадров/сек
Цветовое пространство : YUV
Субдискретизация насыщенности : 4:2:0
Битовая глубина : 8 бит
Тип развёртки : Прогрессивная
Бит/(Пиксели*Кадры) : 0.136
Размер потока : 1,15 Гбайт (79%)
Библиотека кодирования : x264 core 119 r2106 07efeb4
Настройки программы : cabac=1 / ref=11 / deblock=1:-2:-1 / analyse=0x3:0x113 / me=umh / subme=9 / psy=1 / psy_rd=1.00:0.10 / mixed_ref=1 / me_range=32 / chroma_me=1 / trellis=2 / 8x8dct=1 / cqm=0 / deadzone=21,11 / fast_pskip=1 / chroma_qp_offset=-3 / threads=6 / sliced_threads=0 / nr=0 / decimate=1 / interlaced=0 / bluray_compat=0 / constrained_intra=0 / bframes=11 / b_pyramid=2 / b_adapt=2 / b_bias=0 / direct=3 / weightb=1 / open_gop=0 / weightp=0 / keyint=250 / keyint_min=25 / scenecut=40 / intra_refresh=0 / rc_lookahead=80 / rc=2pass / mbtree=1 / bitrate=1928 / ratetol=1.0 / qcomp=0.60 / qpmin=0 / qpmax=69 / qpstep=4 / cplxblur=20.0 / qblur=0.5 / ip_ratio=1.40 / aq=2:0.90
Язык : Russian
Default : Да
Forced : Нет
Аудио
Идентификатор : 2
Формат : AC-3
Формат/Информация : Audio Coding 3
Расширение режима : CM (complete main)
Параметр Endianness формата : Big
Идентификатор кодека : A_AC3
Продолжительность : 1 ч. 27 м.
Вид битрейта : Постоянный
Битрейт : 448 Кбит/сек
Каналы : 6 каналов
Расположение каналов : Front: L C R, Side: L R, LFE
Частота : 48,0 КГц
Битовая глубина : 16 бит
Метод сжатия : С потерями
Размер потока : 281 Мбайт (19%)
Язык : Russian
Default : Да
Forced : Нет
Меню
00:00:00.000 : ru:Эпизод 1
00:04:06.080 : ru:Эпизод 2
00:14:49.440 : ru:Эпизод 3
00:26:15.440 : ru:Эпизод 4
00:37:19.920 : ru:Эпизод 5
00:53:20.560 : ru:Эпизод 6
01:05:11.880 : ru:Эпизод 7
01:16:17.520 : ru:Эпизод 8
01:24:51.640 : ru:Эпизод 9

Скриншоты

Раздача от группы:
 
Показать сообщения:    

Текущее время: Сегодня 11:22

Часовой пояс: GMT



Вы не можете начинать темы
Вы не можете отвечать на сообщения
Вы не можете редактировать свои сообщения
Вы не можете удалять свои сообщения
Вы не можете голосовать в опросах
Вы не можете прикреплять файлы к сообщениям
Вы не можете скачивать файлы