Ивановский Торрент трекер
Яндекс.Погода
 

[Quote]
sergey82

Звездные Войны: Войны Клонов / The Star Wars: Clone Wars
Страна: США, Сингапур
Жанр: Фантастика, боевик, приключения, анимация
Продолжительность серии: ~00:22:00
Год выпуска: 2020
Перевод: Любительский (многоголосый закадровый) Студия «Iron Sound»
Русские субтитры: нет
Режиссёр: Дэйв Филони/ Dave Filoni
Роли озвучивали: Мэтт Лантер (Matt Lanter), Эшли Экстайн (Ashley Eckstein), Джеймс Арнольд Тейлор (James Arnold Taylor), Ди Брэдли Бейкер (Dee Bradley Baker), Том Кэйн (Tom Kane), Ника Футтерман (Nika Futterman), Йен Эберкромби (Ian Abercrombie), Кори Бертон (Corey Burton), Катрин Табер (Catherine Taber), Мэтью Вуд (Matthew Wood)
Описание: На передовых позициях межгалактической войны Добра и Зла — снова любимые герои: Энакин Скайуокер, Оби-Ван Кеноби и Падме Амидала, а также присоединившийся к ним падаван Энакина, Асока. Противостоящие им злодеи — Палпатин, граф Дуку и генерал Гривус — вынашивают план захвата Галактики. Великая Армия Республики, ведомая Йодой, Мейсом Винду, Оби-Ваном Кеноби и другими рыцарями-джедаями, сражается против Новой Армии Дроидов сепаратистов.
Начинается последняя схватка, и судьбы Вселенной вверены рыцарям-джедаям. Их подвиги станут самыми яркими эпизодами масштабных битв и подарят множество удивительных открытий.-

Список серий

Эпизод №1 - "Бракованная партия"
Эпизод №2 - "Эхо вдалеке"
Эпизод №3 - "На крыльях Кирадаков"
Эпизод №4 - "Незаконченное дело"

Эпизод №5 - "Исчезнувшая без следа"
Эпизод №6 - "Сделка без сделки"
Эпизод №7 - "Опасный долг"
Эпизод №8 - "Снова вместе"

Эпизод №9 - "Старые друзья не забыты"
Эпизод №10 - "Скрытый ученик"
Эпизод №11 - "Раскол"
-Над озвучанием работали:
Озвучено студией «Iron Sound»
Перевод - Где тексты, Лебовски?
Сведение звука: Шлыков Игорь (DIP)
Роли озвучивали: Шлыков Игорь, Екатерина Дмитрова, Андрей Зайцев (дубляжный Энакин с 6 серии), Евгений Иванов (дубляжный Оби-Ван), Дмитрий Сухоруков, Евгений Кокурин, Ольга Макарова, Дарья Карапузова, Вячеслав Никитин, Дмитрий Кущак, Вадим Чернобельский, Вячеслав Осипов, Илья Лаврин, Екатерина Луценко, Валерий Нечай, Михаил Алексеев, Алексей Щегорский, Полина Претро, Наташа Белкина, Илья Игнатьев.-Семпл: http://multi-up.com/1256270
Качество: WEB-DL
Формат: MKV
Видео: AVC, 1280x720, 23.976 fps, 4 245 Kbps
Аудио: AC-3, 48 КГц, 6 каналов, 384 Кбит/сек - Русский (Студия «Iron Sound»)
Аудио 2: E-AC-3, 48 КГц, 6 каналов, 256 Кбит/сек - Английский (Оригинал)
Субтитры: отсутствуют

Подробные технические данные

General
Unique ID : 14228815703031374476180854202699435448 (0xAB45EC6F8B1A1A7492E47A03EB94DB8)
Complete name : D:\Фильмы\Звездные Войны - Войны Клонов\The.Clone.Wars.Season.7.WEB-DL.720p.(MVO.Iron-Sound)\The.Clone.Wars.S07E01.Bad.Batch.720p.WEB-DL.DD5.1.MVO.IRON-SOUND.mkv
Format : Matroska
Format version : Version 4
File size : 836 MiB
Duration : 23 min 51 s
Overall bit rate mode : Variable
Overall bit rate : 4 900 kb/s
Encoded date : UTC 2020-02-21 18:08:23
Writing application : mkvmerge v43.0.0 ('The Quartermaster') 64-bit
Writing library : libebml v1.3.10 + libmatroska v1.5.2
Attachments : poster.jpg
Video
ID : 1
Format : AVC
Format/Info : Advanced Video Codec
Format profile : [email protected]
Format settings : CABAC / 4 Ref Frames
Format settings, CABAC : Yes
Format settings, Reference : 4 frames
Codec ID : V_MPEG4/ISO/AVC
Duration : 23 min 51 s
Bit rate mode : Variable
Bit rate : 4 245 kb/s
Maximum bit rate : 6 375 kb/s
Width : 1 280 pixels
Height : 720 pixels
Display aspect ratio : 16:9
Frame rate mode : Constant
Frame rate : 23.976 (24000/1001) FPS
Color space : YUV
Chroma subsampling : 4:2:0
Bit depth : 8 bits
Scan type : Progressive
Bits/(Pixel*Frame) : 0.192
Stream size : 725 MiB (87%)
Default : Yes
Forced : No
Color range : Limited
Color primaries : BT.709
Transfer characteristics : BT.709
Matrix coefficients : BT.709
Audio #1
ID : 2
Format : AC-3
Format/Info : Audio Coding 3
Commercial name : Dolby Digital
Codec ID : A_AC3
Duration : 23 min 51 s
Bit rate mode : Constant
Bit rate : 384 kb/s
Channel(s) : 6 channels
Channel layout : L R C LFE Ls Rs
Sampling rate : 48.0 kHz
Frame rate : 31.250 FPS (1536 SPF)
Compression mode : Lossy
Stream size : 65.5 MiB (8%)
Title : RUS [Студия «Iron Sound» DD5.1]
Language : Russian
Service kind : Complete Main
Default : Yes
Forced : Yes
Audio #2
ID : 3
Format : E-AC-3
Format/Info : Enhanced AC-3
Commercial name : Dolby Digital Plus
Codec ID : A_EAC3
Duration : 23 min 51 s
Bit rate mode : Constant
Bit rate : 256 kb/s
Channel(s) : 6 channels
Channel layout : L R C LFE Ls Rs
Sampling rate : 48.0 kHz
Frame rate : 31.250 FPS (1536 SPF)
Compression mode : Lossy
Stream size : 43.7 MiB (5%)
Title : Original [ENG DD5.1]
Language : English
Service kind : Complete Main
Default : No
Forced : No

Скриншоты



Предыдущие и альтернативные раздачи


Display posts:    

Current time is: 04-Jun 11:54

All times are UTC ± 0


You cannot post new topics in this forum
You cannot reply to topics in this forum
You cannot edit your posts in this forum
You cannot delete your posts in this forum
You cannot vote in polls in this forum
You cannot attach files in this forum
You cannot download files in this forum

!ATTENTION!
The site does not give electronic versions of products, and is engaged only in a collecting and cataloguing of the references sent and published at a forum by our readers. If you are the legal owner of any submitted material and do not wish that the reference to it was in our catalogue, contact us and we shall immediately remove her. Files for an exchange on tracker are given by users of a site, and the administration does not bear the responsibility for their maintenance. The request to not fill in the files protected by copyrights, and also files of the illegal maintenance!