Ивановский Торрент трекер
Яндекс.Погода
 

[Quote]
HUNTER

Звездные парни / Звездари / Колядники / Star Boys / Kaiken se kestaa
Страна: Финляндия, Швеция
Жанр: драма
Год выпуска: 2017
Продолжительность: 01:21:32
Перевод: Любительский (двухголосый закадровый)
Субтитры: русские полные и на песни
Оригинальная аудиодорожка: финский
Режиссер: Виса Койсо-Канттила / Visa Koiso-Kanttila
В ролях: Вили Саарела, Олави Ангерво, Анти Люсуаньеми, Пихла Витала, Маала Малмиваара и др.
Описание: История двух семей, которые распадаются из-за крушения моральных ценностей, когда сексуальная революция добирается до маленького консервативного и религиозного городка в Северной Финляндии.
Доп. информация: Перевод - Дмитрий Дулов
Озвучание - Семён Ващенко и Маргарита Корш
Сведение аудио - Diablo
Видеофайл - teebo
Организация озвучания - Minhers76
Сэмпл: https://yadi.sk/i/3xDKspBD3SBE4q
Тип релиза: WEB-DL 1080p
Контейнер: MKV
Видео: AVC, 1918x1024 (1.85:1), 24.000 fps, 4917 kbps
Аудио 1: AC3, 48000 Hz, 6 ch, 384 kbps (русский)
Аудио 2: AC3, 48000 Hz, 6 ch, 384 kbps (финский)
Формат субтитров: softsub (SRT)

MediaInfo

General
Unique ID : 241241440963438841606392801955725264510 (0xB57D6957EC80675FA5454060F66D467E)
Complete name
Format : Matroska
Format version : Version 4 / Version 2
File size : 3.30 GiB
Duration : 1h 21mn
Overall bit rate : 5 800 Kbps
Encoded date : UTC 2018-02-01 05:40:22
Writing application : mkvmerge v9.4.2 ('So High') 64bit
Writing library : libebml v1.3.4 + libmatroska v1.4.5
DURATION : 01:15:42.841000000
NUMBER_OF_FRAMES : 461
NUMBER_OF_BYTES : 25620
_STATISTICS_WRITING_APP : mkvmerge v9.4.2 ('So High') 64bit
_STATISTICS_WRITING_DATE_UTC : 2018-02-01 05:40:22
_STATISTICS_TAGS : BPS DURATION NUMBER_OF_FRAMES NUMBER_OF_BYTES
Video
ID : 1
Format : AVC
Format/Info : Advanced Video Codec
Format profile : [email protected]
Format settings, CABAC : Yes
Format settings, ReFrames : 4 frames
Codec ID : V_MPEG4/ISO/AVC
Duration : 1h 21mn
Bit rate : 4 917 Kbps
Width : 1 918 pixels
Height : 1 024 pixels
Display aspect ratio : 1.85:1
Frame rate mode : Constant
Frame rate : 24.000 fps
Color space : YUV
Chroma subsampling : 4:2:0
Bit depth : 8 bits
Scan type : Progressive
Bits/(Pixel*Frame) : 0.104
Stream size : 2.80 GiB (85%)
Language : English
Default : Yes
Forced : No
Color range : Limited
Color primaries : BT.709
Transfer characteristics : BT.709
Matrix coefficients : BT.709
Audio #1
ID : 2
Format : AC-3
Format/Info : Audio Coding 3
Mode extension : CM (complete main)
Format settings, Endianness : Big
Codec ID : A_AC3
Duration : 1h 21mn
Bit rate mode : Constant
Bit rate : 384 Kbps
Channel(s) : 6 channels
Channel positions : Front: L C R, Side: L R, LFE
Sampling rate : 48.0 KHz
Compression mode : Lossy
Stream size : 224 MiB (7%)
Language : Russian
Default : Yes
Forced : No
Audio #2
ID : 3
Format : AC-3
Format/Info : Audio Coding 3
Mode extension : CM (complete main)
Format settings, Endianness : Big
Codec ID : A_AC3
Duration : 1h 21mn
Bit rate mode : Constant
Bit rate : 384 Kbps
Channel(s) : 6 channels
Channel positions : Front: L C R, Side: L R, LFE
Sampling rate : 48.0 KHz
Compression mode : Lossy
Stream size : 224 MiB (7%)
Language : Finnish
Default : No
Forced : No
Text #1
ID : 4
Format : UTF-8
Codec ID : S_TEXT/UTF8
Codec ID/Info : UTF-8 Plain Text
Title : песни
Language : Russian
Default : Yes
Forced : No
Text #2
ID : 5
Format : UTF-8
Codec ID : S_TEXT/UTF8
Codec ID/Info : UTF-8 Plain Text
Title : полные
Language : Russian
Default : No
Forced : No
Menu
00:00:00.000 : en:1
00:15:00.000 : en:2
00:30:00.000 : en:3
00:45:00.000 : en:4
01:00:00.000 : en:5
01:17:17.000 : en:6

Скриншоты




Display posts:    

Current time is: 07-Jul 06:00

All times are UTC ± 0


You cannot post new topics in this forum
You cannot reply to topics in this forum
You cannot edit your posts in this forum
You cannot delete your posts in this forum
You cannot vote in polls in this forum
You cannot attach files in this forum
You cannot download files in this forum

!ATTENTION!
The site does not give electronic versions of products, and is engaged only in a collecting and cataloguing of the references sent and published at a forum by our readers. If you are the legal owner of any submitted material and do not wish that the reference to it was in our catalogue, contact us and we shall immediately remove her. Files for an exchange on tracker are given by users of a site, and the administration does not bear the responsibility for their maintenance. The request to not fill in the files protected by copyrights, and also files of the illegal maintenance!