Ивановский Торрент трекер
Яндекс.Погода
DL-List and Torrent activity
None
 
     
 
 

[Quote]
HUNTER

Зверополис / Zootopia
Страна: США
Жанр: мультфильм, боевик, комедия
Год выпуска: 2016
Продолжительность: 01:48:44
Перевод: Авторский (одноголосый закадровый) Юрий Живов
Субтитры: нет
Режиссёр: Байрон Ховард / Byron Howard, Рич Мур / Rich Moore, Джаред Буш / Jared Bush
Роли озвучивали: Джиннифер Гудвин, Джейсон Бейтман, Идрис Эльба, Дженни Слейт, Нейт Торренс, Бонни Хант, Дон Лейк, Томми Чонг, Дж.К. Симмонс
Описание: Позвольте представить вашему человеческому вниманию Зверополис! Это крупнейший животный мегаполис. Население его достаточно многочисленно, и подобно людскому, многообразно. Тут вам и мышки, и гиганты-слоны, и тигры, и даже нерасторопные пингвины. У каждого вида – выделенная зона обитания. Площадь Сахары, например, слывет одним из элитнейших районов в мультфильме «Зверополис». А вот Тундратаун вряд ли порадует своих гостей. Местечко это мрачное и довольно неприветливое. Джуди Хоппс оказалась в Зверополисе совсем не случайно. Она – не человек. Она – зайчиха. Если точнее, зайчиха-полицейский. Не сложно догадаться, что пушистой красотке придется достаточно сложно среди угрюмых, суровых и крупных коллег. Впрочем, как и любой женщине в мужской «рабочей компании». Напарник, кстати, у Джуди тоже «подкачал». Просто лис вряд ли компания для зайца. Но Ник Уайльд – профессионал. И лисьих вольностей себе не позволяет. Да и законы и устои Зверополиса нарушать не следует. Но вот если они объединяться и превратятся в верных напарников, то слава им просто гарантирована!
Семпл: https://yadi.sk/i/NLc5-eha3Rcfsh
Качество: BDRip ((Исходник Blu-ray disc 1080p)
Формат: AVI
Видео: XviD 73, 720x304, (2,35:1), 23,976 fps, 1474 Кбит/с, 8 бит, 0.28 bit/pixel
Аудио: Русский (АС3, 6 ch (Front: L C R, Side: L R, LFE), 48,0 KHz, 448 Kbps)

MediaInfo

Общее
Полное имя : H:\Фильмы на трекер\Зверополис (мультфильм, боевик, комедия 2016 год).avi
Формат : AVI
Формат/Информация : Audio Video Interleave
Размер файла : 1,46 Гбайт
Продолжительность : 1 ч. 48 м.
Общий поток : 1931 Кбит/сек
Программа кодирования : VirtualDubMod 1.5.10.3 | www.virtualdub-fr.org || (build 2550/release)
Библиотека кодирования : VirtualDubMod build 2550/release
Видео
Идентификатор : 0
Формат : MPEG-4 Visual
Профиль формата : Advanced Simple@L5
Параметр BVOP формата : 2
Параметр QPel формата : Нет
Параметр GMC формата : Без точки перехода
Параметр матрицы формата : Выборочная
Идентификатор кодека : XVID
Идентификатор кодека/Подсказка : XviD
Продолжительность : 1 ч. 48 м.
Битрейт : 1474 Кбит/сек
Ширина : 720 пикселей
Высота : 304 пикселя
Соотношение сторон : 2,35:1
Частота кадров : 23,976 (23976/1000) кадра/сек
Цветовое пространство : YUV
Субдискретизация насыщенности : 4:2:0
Битовая глубина : 8 бит
Тип развёртки : Прогрессивная
Метод сжатия : С потерями
Бит/(Пиксели*Кадры) : 0.281
Размер потока : 1,12 Гбайт (76%)
Библиотека кодирования : XviD 73
Аудио
Идентификатор : 1
Формат : AC-3
Формат/Информация : Audio Coding 3
Расширение режима : CM (complete main)
Параметр Endianness формата : Big
Идентификатор кодека : 2000
Продолжительность : 1 ч. 48 м.
Вид битрейта : Постоянный
Битрейт : 448 Кбит/сек
Каналы : 6 каналов
Расположение каналов : Front: L C R, Side: L R, LFE
Частота : 48,0 КГц
Частота кадров : 31,250 кадров/сек (1536 spf)
Метод сжатия : С потерями
Размер потока : 348 Мбайт (23%)
Выравнивание : Разделение по промежуткам
Продолжительность промежутка : 42 мс. (1,00 видеокадр)
Время предзагрузки промежутка : 500 мс.

Скриншот c названием фильма

Скриншоты



Display posts:    

Current time is: 22-Apr 14:31

All times are UTC ± 0


You cannot post new topics in this forum
You cannot reply to topics in this forum
You cannot edit your posts in this forum
You cannot delete your posts in this forum
You cannot vote in polls in this forum
You cannot attach files in this forum
You cannot download files in this forum

!ATTENTION!
The site does not give electronic versions of products, and is engaged only in a collecting and cataloguing of the references sent and published at a forum by our readers. If you are the legal owner of any submitted material and do not wish that the reference to it was in our catalogue, contact us and we shall immediately remove her. Files for an exchange on tracker are given by users of a site, and the administration does not bear the responsibility for their maintenance. The request to not fill in the files protected by copyrights, and also files of the illegal maintenance!