Ивановский Торрент трекер
Яндекс.Погода
 

[Цитировать]
HUNTER

Зверополис / Zootopia
Страна: США
Жанр: мультфильм, боевик, комедия
Год выпуска: 2016
Продолжительность: 01:48:44
Перевод: Авторский (одноголосый закадровый) Юрий Живов
Субтитры: нет
Режиссёр: Байрон Ховард / Byron Howard, Рич Мур / Rich Moore, Джаред Буш / Jared Bush
Роли озвучивали: Джиннифер Гудвин, Джейсон Бейтман, Идрис Эльба, Дженни Слейт, Нейт Торренс, Бонни Хант, Дон Лейк, Томми Чонг, Дж.К. Симмонс
Описание: Позвольте представить вашему человеческому вниманию Зверополис! Это крупнейший животный мегаполис. Население его достаточно многочисленно, и подобно людскому, многообразно. Тут вам и мышки, и гиганты-слоны, и тигры, и даже нерасторопные пингвины. У каждого вида – выделенная зона обитания. Площадь Сахары, например, слывет одним из элитнейших районов в мультфильме «Зверополис». А вот Тундратаун вряд ли порадует своих гостей. Местечко это мрачное и довольно неприветливое. Джуди Хоппс оказалась в Зверополисе совсем не случайно. Она – не человек. Она – зайчиха. Если точнее, зайчиха-полицейский. Не сложно догадаться, что пушистой красотке придется достаточно сложно среди угрюмых, суровых и крупных коллег. Впрочем, как и любой женщине в мужской «рабочей компании». Напарник, кстати, у Джуди тоже «подкачал». Просто лис вряд ли компания для зайца. Но Ник Уайльд – профессионал. И лисьих вольностей себе не позволяет. Да и законы и устои Зверополиса нарушать не следует. Но вот если они объединяться и превратятся в верных напарников, то слава им просто гарантирована!
Семпл: https://yadi.sk/i/NLc5-eha3Rcfsh
Качество: BDRip ((Исходник Blu-ray disc 1080p)
Формат: AVI
Видео: XviD 73, 720x304, (2,35:1), 23,976 fps, 1474 Кбит/с, 8 бит, 0.28 bit/pixel
Аудио: Русский (АС3, 6 ch (Front: L C R, Side: L R, LFE), 48,0 KHz, 448 Kbps)

MediaInfo

Общее
Полное имя : H:\Фильмы на трекер\Зверополис (мультфильм, боевик, комедия 2016 год).avi
Формат : AVI
Формат/Информация : Audio Video Interleave
Размер файла : 1,46 Гбайт
Продолжительность : 1 ч. 48 м.
Общий поток : 1931 Кбит/сек
Программа кодирования : VirtualDubMod 1.5.10.3 | www.virtualdub-fr.org || (build 2550/release)
Библиотека кодирования : VirtualDubMod build 2550/release
Видео
Идентификатор : 0
Формат : MPEG-4 Visual
Профиль формата : Advanced Simple@L5
Параметр BVOP формата : 2
Параметр QPel формата : Нет
Параметр GMC формата : Без точки перехода
Параметр матрицы формата : Выборочная
Идентификатор кодека : XVID
Идентификатор кодека/Подсказка : XviD
Продолжительность : 1 ч. 48 м.
Битрейт : 1474 Кбит/сек
Ширина : 720 пикселей
Высота : 304 пикселя
Соотношение сторон : 2,35:1
Частота кадров : 23,976 (23976/1000) кадра/сек
Цветовое пространство : YUV
Субдискретизация насыщенности : 4:2:0
Битовая глубина : 8 бит
Тип развёртки : Прогрессивная
Метод сжатия : С потерями
Бит/(Пиксели*Кадры) : 0.281
Размер потока : 1,12 Гбайт (76%)
Библиотека кодирования : XviD 73
Аудио
Идентификатор : 1
Формат : AC-3
Формат/Информация : Audio Coding 3
Расширение режима : CM (complete main)
Параметр Endianness формата : Big
Идентификатор кодека : 2000
Продолжительность : 1 ч. 48 м.
Вид битрейта : Постоянный
Битрейт : 448 Кбит/сек
Каналы : 6 каналов
Расположение каналов : Front: L C R, Side: L R, LFE
Частота : 48,0 КГц
Частота кадров : 31,250 кадров/сек (1536 spf)
Метод сжатия : С потерями
Размер потока : 348 Мбайт (23%)
Выравнивание : Разделение по промежуткам
Продолжительность промежутка : 42 мс. (1,00 видеокадр)
Время предзагрузки промежутка : 500 мс.

Скриншот c названием фильма

Скриншоты



Показать сообщения:    

Текущее время: 19-Янв 10:42

Часовой пояс: UTC ± 0


Вы не можете начинать темы
Вы не можете отвечать на сообщения
Вы не можете редактировать свои сообщения
Вы не можете удалять свои сообщения
Вы не можете голосовать в опросах
Вы не можете прикреплять файлы к сообщениям
Вы не можете скачивать файлы

!ВНИМАНИЕ!
Сайт не предоставляет электронные версии произведений, а занимается лишь коллекционированием и каталогизацией ссылок, присылаемых и публикуемых на форуме нашими читателями. Если вы являетесь правообладателем какого-либо представленного материала и не желаете, чтобы ссылка на него находилась в нашем каталоге, свяжитесь с нами, и мы незамедлительно удалим ее. Файлы для обмена на трекере предоставлены пользователями сайта, и администрация не несет ответственности за их содержание. Просьба не заливать файлы, защищенные авторскими правами, а также файлы нелегального содержания!