Ивановский Торрент трекер
Яндекс.Погода
DL-List and Torrent activity
None
 
     
 
 

[Quote]
HUNTER

Зверополис
Zootopia
«Welcome to the urban jungle»
Страна: США
Жанр: мультфильм, боевик, комедия, криминал, приключения, семейный
Год выпуска: 2016
Продолжительность: 01:48:44
Перевод: Профессиональный (полное дублирование) [Blu-ray EUR]
Cубтитры: русские (форсированные, полные), украинские (полные), английские (полные, SDH, SDH цветные)
Оригинальная аудиодорожка: английский
Режиссер: Байрон Ховард / Byron Howard, Рич Мур / Rich Moore, Джаред Буш / Jared Bush
В ролях: Джиннифер Гудвин, Джейсон Бейтман, Идрис Эльба, Дженни Слейт, Нейт Торренс, Бонни Хант, Дон Лейк, Томми Чонг, Дж.К. Симмонс, Октавия Спенсер, Алан Тьюдик, Шакира
Описание:
Добро пожаловать в Зверополис - современный город, населенный самыми разными животными, от огромных слонов до крошечных мышек. Зверополис разделен на районы, полностью повторяющие естественную среду обитания разных жителей - здесь есть и элитный район Площадь Сахары и неприветливый Тундратаун. В этом городе появляется новый офицер полиции, жизнерадостная зайчиха Джуди Хоппс, которая с первых дней работы понимает, как сложно быть маленькой и пушистой среди больших и сильных полицейских. Джуди хватается за первую же возможность проявить себя, несмотря на то, что ее партнером будет болтливый хитрый лис Ник Уайлд. Вдвоем им предстоит раскрыть сложное дело, от которого будет зависеть судьба всех обитателей Зверополиса.

Автор рипа: stalkerok
Сэмпл
Качество видео: BDRip-AVC [Локализованный видеоряд] [Zootopia (2016) Blu-ray Disc [EUR] -BLUEBIRD]
Формат видео: MKV
Видео: 1950 Кбит/сек, 1152*482 (2,40:1), в 23,976 (24000/1001) кадра/сек, AVC
Аудио #1: русский, 448 Кбит/сек, 48,0 КГц, 6 каналов, AC-3
Аудио #2: английский, 448 Кбит/сек, 48,0 КГц, 6 каналов, AC-3
Навигация по главам: есть

x264/MediaInfo

---[Information] [12.01.2018 22:29:58] x264 [info]: frame I:1381 Avg QP:16.45 size: 73824
---[Information] [12.01.2018 22:29:58] x264 [info]: frame P:34042 Avg QP:19.09 size: 22194
---[Information] [12.01.2018 22:29:58] x264 [info]: frame B:121007 Avg QP:21.59 size: 6056
Общее
Уникальный идентификатор : 233018151701976443077331678511268699196 (0xAF4DA9E15A4F33D2A3F1F777B3C11C3C)
Полное имя : M:\$oldrerips\Zootopia\Zootopia.2016.BDRip-AVC.RUS.ENG.stalkerok.new-team.mkv
Формат : Matroska
Версия формата : Version 4 / Version 2
Размер файла : 2,16 Гбайт
Продолжительность : 1 ч. 48 м.
Общий поток : 2849 Кбит/сек
Название фильма : Zootopia (2016) (Rip by stalkerok)
Дата кодирования : UTC 2018-01-13 15:29:32
Программа кодирования : mkvmerge v8.6.1 ('Flying') 64bit
Библиотека кодирования : libebml v1.3.3 + libmatroska v1.4.4
Видео
Идентификатор : 4
Формат : AVC
Формат/Информация : Advanced Video Codec
Профиль формата : High@L4.1
Параметр CABAC формата : Да
Параметр ReFrames формата : 14 кадров
Идентификатор кодека : V_MPEG4/ISO/AVC
Продолжительность : 1 ч. 48 м.
Битрейт : 1950 Кбит/сек
Ширина : 1152 пикселя
Высота : 482 пикселя
Соотношение сторон : 2,40:1
Режим частоты кадров : Постоянный
Частота кадров : 23,976 (24000/1001) кадра/сек
Цветовое пространство : YUV
Субдискретизация насыщенности : 4:2:0
Битовая глубина : 8 бит
Тип развёртки : Прогрессивная
Бит/(Пиксели*Кадры) : 0.146
Размер потока : 1,48 Гбайт (68%)
Заголовок : Zootopia (2016) (Rip by stalkerok)
Библиотека кодирования : x264 core 152 r2851kMod ba24899
Настройки программы : cabac=1 / ref=14 / deblock=1:-3:-2 / analyse=0x3:0x133 / me=umh / subme=11 / psy=1 / fade_compensate=0.00 / psy_rd=1.00:0.00 / mixed_ref=1 / me_range=32 / chroma_me=1 / trellis=2 / 8x8dct=1 / cqm=0 / deadzone=21,11 / fast_pskip=0 / chroma_qp_offset=-2 / threads=12 / lookahead_threads=3 / sliced_threads=0 / nr=0 / decimate=1 / interlaced=0 / bluray_compat=0 / constrained_intra=0 / bframes=14 / b_pyramid=2 / b_adapt=2 / b_bias=0 / direct=3 / weightb=1 / open_gop=0 / weightp=2 / keyint=240 / keyint_min=23 / scenecut=40 / intra_refresh=0 / rc_lookahead=60 / rc=crf / mbtree=0 / crf=18.1000 / qcomp=0.65 / qpmin=0 / qpmax=69 / qpstep=4 / vbv_maxrate=50000 / vbv_bufsize=62500 / crf_max=0.0 / nal_hrd=none / filler=0 / ip_ratio=1.40 / pb_ratio=1.30 / aq=3:0.80 / zones=143936,156429,q=32
Default : Да
Forced : Нет
Аудио #1
Идентификатор : 1
Формат : AC-3
Формат/Информация : Audio Coding 3
Расширение режима : CM (complete main)
Параметр Endianness формата : Big
Идентификатор кодека : A_AC3
Продолжительность : 1 ч. 48 м.
Вид битрейта : Постоянный
Битрейт : 448 Кбит/сек
Каналы : 6 каналов
Расположение каналов : Front: L C R, Side: L R, LFE
Частота : 48,0 КГц
Частота кадров : 31,250 кадров/сек (1536 spf)
Метод сжатия : С потерями
Размер потока : 348 Мбайт (16%)
Язык : Russian
Default : Да
Forced : Нет
Аудио #2
Идентификатор : 5
Формат : AC-3
Формат/Информация : Audio Coding 3
Расширение режима : CM (complete main)
Параметр Endianness формата : Big
Идентификатор кодека : A_AC3
Продолжительность : 1 ч. 48 м.
Вид битрейта : Постоянный
Битрейт : 448 Кбит/сек
Каналы : 6 каналов
Расположение каналов : Front: L C R, Side: L R, LFE
Частота : 48,0 КГц
Частота кадров : 31,250 кадров/сек (1536 spf)
Метод сжатия : С потерями
Размер потока : 348 Мбайт (16%)
Язык : English
Default : Нет
Forced : Нет
Текст #1
Идентификатор : 2
Формат : UTF-8
Идентификатор кодека : S_TEXT/UTF8
Идентификатор кодека/Информация : UTF-8 Plain Text
Продолжительность : 1 ч. 30 м.
Битрейт : 5 бит/сек
Count of elements : 73
Размер потока : 3,59 Кбайт (0%)
Заголовок : Forced
Язык : Russian
Default : Да
Forced : Нет
Текст #2
Идентификатор : 3
Формат : UTF-8
Идентификатор кодека : S_TEXT/UTF8
Идентификатор кодека/Информация : UTF-8 Plain Text
Продолжительность : 1 ч. 38 м.
Битрейт : 122 бит/сек
Count of elements : 1734
Размер потока : 88,6 Кбайт (0%)
Язык : Russian
Default : Нет
Forced : Нет
Текст #3
Идентификатор : 6
Формат : UTF-8
Идентификатор кодека : S_TEXT/UTF8
Идентификатор кодека/Информация : UTF-8 Plain Text
Продолжительность : 1 ч. 38 м.
Битрейт : 77 бит/сек
Count of elements : 2014
Размер потока : 56,4 Кбайт (0%)
Язык : English
Default : Нет
Forced : Нет
Текст #4
Идентификатор : 7
Формат : UTF-8
Идентификатор кодека : S_TEXT/UTF8
Идентификатор кодека/Информация : UTF-8 Plain Text
Продолжительность : 1 ч. 45 м.
Битрейт : 82 бит/сек
Count of elements : 2295
Размер потока : 64,3 Кбайт (0%)
Заголовок : SDH
Язык : English
Default : Нет
Forced : Нет
Текст #5
Идентификатор : 8
Формат : UTF-8
Идентификатор кодека : S_TEXT/UTF8
Идентификатор кодека/Информация : UTF-8 Plain Text
Продолжительность : 1 ч. 39 м.
Битрейт : 117 бит/сек
Count of elements : 2285
Размер потока : 85,5 Кбайт (0%)
Заголовок : SDH Colored
Язык : English
Default : Нет
Forced : Нет
Текст #6
Идентификатор : 9
Формат : UTF-8
Идентификатор кодека : S_TEXT/UTF8
Идентификатор кодека/Информация : UTF-8 Plain Text
Продолжительность : 1 ч. 35 м.
Битрейт : 122 бит/сек
Count of elements : 1373
Размер потока : 85,6 Кбайт (0%)
Язык : Ukrainian
Default : Нет
Forced : Нет
Меню
00:00:00.000 : : 1. Пролог
00:00:59.558 : : 2. Гидеон Грей
00:05:50.098 : : 3. Полицейская академия
00:10:05.562 : : 4. Добро пожаловать в Зверополис
00:14:31.537 : : 5. Инспекция парковок
00:18:24.019 : : 6. Лапочки на палочке
00:26:03.353 : : 7. Погоня за Хорьковицем
00:30:57.438 : : 8. Это жульничество
00:37:07.099 : : 9. Клуб натуралистов
00:40:43.440 : : 10. Управление Дорожно-Хвостовой Службы
00:44:31.751 : : 11. Мистер Биг
00:51:40.429 : : 12. Одичавший Манчас
00:55:40.378 : : 13. Гондола
01:00:48.268 : : 14. Помощь Барашкис
01:03:37.855 : : 15. Клиника на Утёсе
01:09:19.822 : : 16. Мы раскрыли дело
01:13:39.163 : : 17. Хопс сдаётся
01:17:07.372 : : 18. Извинения Хопс
01:21:52.364 : : 19. Лаборатория Дугласа
01:28:19.167 : : 20. Музей естественной истории
01:32:43.431 : : 21. Эпилог
01:36:12.140 : : 22. Финальные титры

Скриншоты



Display posts:    

Current time is: 17-Jun 10:06

All times are UTC ± 0


You cannot post new topics in this forum
You cannot reply to topics in this forum
You cannot edit your posts in this forum
You cannot delete your posts in this forum
You cannot vote in polls in this forum
You cannot attach files in this forum
You cannot download files in this forum

!ATTENTION!
The site does not give electronic versions of products, and is engaged only in a collecting and cataloguing of the references sent and published at a forum by our readers. If you are the legal owner of any submitted material and do not wish that the reference to it was in our catalogue, contact us and we shall immediately remove her. Files for an exchange on tracker are given by users of a site, and the administration does not bear the responsibility for their maintenance. The request to not fill in the files protected by copyrights, and also files of the illegal maintenance!