Ивановский Торрент трекер
Яндекс.Погода
 

[Цитировать]
HUNTER

Зверопой / Sing
Страна: Япония, США
Студия: Universal Pictures
Жанр: мультфильм, мюзикл, комедия, семейный, музыка
Год выпуска: 2016
Продолжительность: 01:43:29
Перевод: Профессиональный (дублированный)
Субтитры: английские, русские, эстонские, латышские, литовские, русские (форс.), эстонские (форс.), латышские (форс.), литовские (форс.)
Оригинальная аудиодорожка: английская
Режиссёр: Гарт Дженнингс, Кристоф Лурделе / Garth Jennings, Christophe Lourdelet
Роли озвучивали: Мэттью МакКонахи, Риз Уизерспун, Сет МакФарлейн, Скарлетт Йоханссон, Джон Си Райли, Тэрон Эджертон, Тори Келли, Дженнифер Сондерс, Дженнифер Хадсон, Гарт Дженнингс
Описание: В мире, который населяют звери, коала по имени Бастер Мун изо всех сил пытается предотвратить закрытие своего театра. В итоге Бастер и его друг, баран Эдди, устраивают конкурс певцов, предлагая принять участие каждому жителю города.
Дополнительные материалы: Рассказ о съемках "Sing", Видеоклип "Faith", Видеоклип "Set It All Free" с текстом песни, Пой и танцуй! - "Faith", Сеть контактов "Sing", Лучшее от Гюнтера
Меню: есть, анимированное
Сэмпл
Тип релиза: DVD9
Контейнер: DVD-Video
Видео: PAL 16:9 (720x576(0.547)) MPEG Video, 25,000 кадр/сек, 5674 Кбит/сек
Аудио: English (Dolby AC-3, 6 ch) 384 Кбит/сек, 48.0 КГц
Аудио 2: Russian (Dolby AC-3, 6 ch) 384 Кбит/сек, 48.0 КГц
Аудио 3: Estonian (Dolby AC-3, 6 ch) 384 Кбит/сек, 48.0 КГц
Аудио 4: Latvian (Dolby AC-3, 6 ch) 384 Кбит/сек, 48.0 КГц
Аудио 5: Lithuanian (Dolby AC-3, 6 ch) 384 Кбит/сек, 48.0 КГц

DVDInfo

Title: SING
Disk size: 7.29 Gb ( 7 639 810,00 KBytes )
DVD Type: DVD-9
Enabled regions: 1,2,3,4,5,6,7,8
VTS_01:
Title Play Length: 00:00:25
Video: PAL 16:9 (720x576) VBR,Auto Letterboxed
Audio (1):
English (Dolby AC3, 6 ch)
Subtitles (0)
VTS_02:
Title Play Length: 00:04:05
Video: PAL 16:9 (720x576) VBR,Auto Pan&Scan
Audio (0)
Subtitles (0)
VTS_03:
Title Play Length: 00:00:08
Video: PAL 16:9 (720x576) VBR,Auto Letterboxed
Audio (1):
English (Dolby AC3, 6 ch)
Subtitles (0)
VTS_04:
Title Play Length: 00:00:00
Video: PAL 16:9 (720x576) VBR,Auto Letterboxed
Audio (0)
Subtitles (0)
VTS_05:
Title Play Length: 00:00:00
Video: PAL 16:9 (720x576) VBR,Auto Letterboxed
Audio (0)
Subtitles (0)
VTS_06:
Title Play Length: 00:10:44
Video: PAL 16:9 (720x576) VBR,Auto Letterboxed
Audio (1):
English (Dolby AC3, 2 ch)
Subtitles (2):
English
Russian
VTS_07:
Title Play Length: 00:02:59
Video: PAL 16:9 (720x576) VBR,Auto Letterboxed
Audio (1):
English (Dolby AC3, 2 ch)
Subtitles (2):
English
Russian
VTS_08:
Title Play Length: 00:00:00
Video: PAL 16:9 (720x576) VBR,Auto Letterboxed
Audio (0)
Subtitles (0)
VTS_09:
Title Play Length: 00:06:11
Video: PAL 16:9 (720x576) VBR,Auto Letterboxed
Audio (1):
English (Dolby AC3, 2 ch)
Subtitles (0)
VTS_10:
Title Play Length: 00:00:34
Video: PAL 16:9 (720x576) VBR,Auto Letterboxed
Audio (1):
English (Dolby AC3, 6 ch)
Subtitles (2):
English
Russian
VTS_11:
Title Play Length: 00:00:00
Video: PAL 16:9 (720x576) VBR,Auto Letterboxed
Audio (0)
Subtitles (0)
VTS_12:
Title Play Length: 01:43:29
Video: PAL 16:9 (720x576) VBR,Auto Letterboxed
Audio (5):
English (Dolby AC3, 6 ch)
Russian (Dolby AC3, 6 ch)
Estonian (Dolby AC3, 6 ch)
Latvian (Dolby AC3, 6 ch)
Lithuanian (Dolby AC3, 6 ch)
Subtitles (9):
English
Russian
Estonian
Latvian
Lithuanian
Russian
Estonian
Latvian
Lithuanian
VTS_13:
Title Play Length: 00:20:11
Video: PAL 16:9 (720x576) VBR,Auto Letterboxed
Audio (1):
English (Dolby AC3, 2 ch)
Subtitles (2):
English
Russian
VTS_14:
Title Play Length: 00:01:01
Video: PAL 16:9 (720x576) VBR,Auto Letterboxed
Audio (1):
English (Dolby AC3, 2 ch)
Subtitles (2):
English
Russian
* Menus Information *
VIDEO_TS Menu
Video:
PAL 16:9 (720x576) VBR
Auto Pan&Scan
Audio (0)
English Language Unit :
Title Menu
VTS_01 Menu
Video:
NTSC 4:3 (720x480) VBR
Auto Pan&Scan, Auto Letterboxed
Audio (0)
English Language Unit :
Root Menu
VTS_02 Menu
Video:
NTSC 4:3 (720x480) VBR
Auto Pan&Scan, Auto Letterboxed
Audio (0)
English Language Unit :
Root Menu
VTS_03 Menu
Video:
NTSC 4:3 (720x480) VBR
Auto Pan&Scan, Auto Letterboxed
Audio (0)
English Language Unit :
Root Menu
VTS_04 Menu
Video:
NTSC 4:3 (720x480) VBR
Auto Pan&Scan, Auto Letterboxed
Audio (0)
English Language Unit :
Root Menu
VTS_05 Menu
Video:
NTSC 4:3 (720x480) VBR
Auto Pan&Scan, Auto Letterboxed
Audio (0)
English Language Unit :
Root Menu
VTS_06 Menu
Video:
NTSC 4:3 (720x480) VBR
Auto Pan&Scan, Auto Letterboxed
Audio (0)
English Language Unit :
Root Menu
VTS_07 Menu
Video:
NTSC 4:3 (720x480) VBR
Auto Pan&Scan, Auto Letterboxed
Audio (0)
English Language Unit :
Root Menu
VTS_08 Menu
Video:
NTSC 4:3 (720x480) VBR
Auto Pan&Scan, Auto Letterboxed
Audio (0)
English Language Unit :
Root Menu
VTS_09 Menu
Video:
NTSC 4:3 (720x480) VBR
Auto Pan&Scan, Auto Letterboxed
Audio (0)
English Language Unit :
Root Menu
VTS_10 Menu
Video:
NTSC 4:3 (720x480) VBR
Auto Pan&Scan, Auto Letterboxed
Audio (0)
English Language Unit :
Root Menu
VTS_11 Menu
Video:
NTSC 4:3 (720x480) VBR
Auto Pan&Scan, Auto Letterboxed
Audio (0)
English Language Unit :
Root Menu
VTS_12 Menu
Video:
PAL 16:9 (720x576) VBR
Auto Letterboxed
Audio (1):
Not specified (Dolby AC3, 2 ch)
English Language Unit :
Root Menu
Subpicture Menu
Audio Menu
Angle menu
Chapter (PTT) Menu
VTS_13 Menu
Video:
NTSC 4:3 (720x480) VBR
Auto Pan&Scan, Auto Letterboxed
Audio (0)
English Language Unit :
Root Menu
VTS_14 Menu
Video:
NTSC 4:3 (720x480) VBR
Auto Pan&Scan, Auto Letterboxed
Audio (0)
English Language Unit :
Root Menu

MediaInfo

Общее
Полное имя : SING\VIDEO_TS\VTS_12_1.VOB
Формат : MPEG-PS
Размер файла : 1024 Мбайт
Продолжительность : 18 м. 28 с.
Режим общего битрейта : Переменный
Общий поток : 7748 Кбит/сек
Видео
Идентификатор : 224 (0xE0)
Формат : MPEG Video
Версия формата : Version 2
Профиль формата : Main@Main
Настройки формата : CustomMatrix / BVOP
Параметр BVOP формата : Да
Параметр матрицы формата : Выборочная
Параметр GOP формата : Variable
Структура изображения : Frame
Продолжительность : 18 м. 28 с.
Вид битрейта : Переменный
Битрейт : 5674 Кбит/сек
Максимальный битрейт : 9800 Кбит/сек
Ширина : 720 пикселей
Высота : 576 пикселей
Соотношение сторон : 16:9
Частота кадров : 25,000 кадров/сек
Стандарт вещания : PAL
Цветовое пространство : YUV
Субдискретизация насыщенности : 4:2:0
Битовая глубина : 8 бит
Тип развёртки : Чересстрочная
Порядок развёртки : Верхнее поле первое
Метод сжатия : С потерями
Бит/(Пиксели*Кадры) : 0.547
Временной код первого кадра : 00:59:59:00
Оригинал временного кода : Group of pictures header
Размер потока : 750 Мбайт (73%)
Аудио #1
Идентификатор : 189 (0xBD)-128 (0x80)
Формат : AC-3
Формат/Информация : Audio Coding 3
Режим смешивания : DVD-Video
Продолжительность : 18 м. 28 с.
Вид битрейта : Постоянный
Битрейт : 384 Кбит/сек
Каналы : 6 каналов
Расположение каналов : Front: L C R, Side: L R, LFE
Частота : 48,0 КГц
Частота кадров : 31,250 кадров/сек (1536 SPF)
Битовая глубина : 16 бит
Метод сжатия : С потерями
Размер потока : 50,7 Мбайт (5%)
ServiceKind/String : Complete Main
Аудио #2
Идентификатор : 189 (0xBD)-129 (0x81)
Формат : AC-3
Формат/Информация : Audio Coding 3
Режим смешивания : DVD-Video
Продолжительность : 18 м. 28 с.
Вид битрейта : Постоянный
Битрейт : 384 Кбит/сек
Каналы : 6 каналов
Расположение каналов : Front: L C R, Side: L R, LFE
Частота : 48,0 КГц
Частота кадров : 31,250 кадров/сек (1536 SPF)
Битовая глубина : 16 бит
Метод сжатия : С потерями
Размер потока : 50,7 Мбайт (5%)
ServiceKind/String : Complete Main
Аудио #3
Идентификатор : 189 (0xBD)-130 (0x82)
Формат : AC-3
Формат/Информация : Audio Coding 3
Режим смешивания : DVD-Video
Продолжительность : 18 м. 28 с.
Вид битрейта : Постоянный
Битрейт : 384 Кбит/сек
Каналы : 6 каналов
Расположение каналов : Front: L C R, Side: L R, LFE
Частота : 48,0 КГц
Частота кадров : 31,250 кадров/сек (1536 SPF)
Битовая глубина : 16 бит
Метод сжатия : С потерями
Размер потока : 50,7 Мбайт (5%)
ServiceKind/String : Complete Main
Аудио #4
Идентификатор : 189 (0xBD)-131 (0x83)
Формат : AC-3
Формат/Информация : Audio Coding 3
Режим смешивания : DVD-Video
Продолжительность : 18 м. 28 с.
Вид битрейта : Постоянный
Битрейт : 384 Кбит/сек
Каналы : 6 каналов
Расположение каналов : Front: L C R, Side: L R, LFE
Частота : 48,0 КГц
Частота кадров : 31,250 кадров/сек (1536 SPF)
Битовая глубина : 16 бит
Метод сжатия : С потерями
Размер потока : 50,7 Мбайт (5%)
ServiceKind/String : Complete Main
Аудио #5
Идентификатор : 189 (0xBD)-132 (0x84)
Формат : AC-3
Формат/Информация : Audio Coding 3
Режим смешивания : DVD-Video
Продолжительность : 18 м. 28 с.
Вид битрейта : Постоянный
Битрейт : 384 Кбит/сек
Каналы : 6 каналов
Расположение каналов : Front: L C R, Side: L R, LFE
Частота : 48,0 КГц
Частота кадров : 31,250 кадров/сек (1536 SPF)
Битовая глубина : 16 бит
Метод сжатия : С потерями
Размер потока : 50,7 Мбайт (5%)
ServiceKind/String : Complete Main
Текст #1
Идентификатор : 189 (0xBD)-32 (0x20)
Формат : RLE
Формат/Информация : Run-length encoding
Режим смешивания : DVD-Video
Текст #2
Идентификатор : 189 (0xBD)-33 (0x21)
Формат : RLE
Формат/Информация : Run-length encoding
Режим смешивания : DVD-Video
Текст #3
Идентификатор : 189 (0xBD)-34 (0x22)
Формат : RLE
Формат/Информация : Run-length encoding
Режим смешивания : DVD-Video
Текст #4
Идентификатор : 189 (0xBD)-35 (0x23)
Формат : RLE
Формат/Информация : Run-length encoding
Режим смешивания : DVD-Video
Текст #5
Идентификатор : 189 (0xBD)-36 (0x24)
Формат : RLE
Формат/Информация : Run-length encoding
Режим смешивания : DVD-Video

Скриншоты меню

Скриншоты

Скриншоты доп. материалов



Показать сообщения:    

Текущее время: 15-Ноя 19:13

Часовой пояс: UTC ± 0


Вы не можете начинать темы
Вы не можете отвечать на сообщения
Вы не можете редактировать свои сообщения
Вы не можете удалять свои сообщения
Вы не можете голосовать в опросах
Вы не можете прикреплять файлы к сообщениям
Вы не можете скачивать файлы

!ВНИМАНИЕ!
Сайт не предоставляет электронные версии произведений, а занимается лишь коллекционированием и каталогизацией ссылок, присылаемых и публикуемых на форуме нашими читателями. Если вы являетесь правообладателем какого-либо представленного материала и не желаете, чтобы ссылка на него находилась в нашем каталоге, свяжитесь с нами, и мы незамедлительно удалим ее. Файлы для обмена на трекере предоставлены пользователями сайта, и администрация не несет ответственности за их содержание. Просьба не заливать файлы, защищенные авторскими правами, а также файлы нелегального содержания!