Ивановский Торрент трекер
Яндекс.Погода
 

[Quote]
HUNTER

Звероферма / Скотный двор / Animal Farm Страна: Великобритания, США
Жанр: Мультфильм, карикатура, сатира, политический гротеск
Продолжительность: 01:12:06
Год выпуска: 1954
Перевод: Профессиональный (многоголосый закадровый)
Студия: Кинокомпания «Selena International» по заказу ОРТ
Русские субтитры: нет
Режиссёр: Джой Батчелор / Joy Batchelor, Джон Халас / John Halas
Описание: Когда-то мистер Джонс владел процветающей и доходной фермой, но сейчас его дела шли из рук вон плохо. Из-за невозможности решить свои проблемы мистер Джонс начал злоупотреблять выпивкой. Среди своих собутыльников он нашел хороших слушателей, которым мог рассказывать о своих горестях.
Эта необычная история началась однажды вечером, когда мистер Джонс после очередной попойки вернулся домой позже обычного…

Доп. информация: Исходник - BDRip 720p позаимствован у K_A_E, спасибо!
За оцифровку русской аудиодорожки благоадарность адресуется Fleh_808
HDRip и сведение русской звуковой дорожки - Arle-kino
Семпл
Качество: HDRip
Формат: AVI
Видео: 720x528 (1.36:1), 24.000 fps, XviD build 50 ~2296 kbps avg, 0.25 bit/pixel
Аудио 1: 48 kHz, AC3 Dolby Digital, 2/0 (L,R) ch, ~192 kbps - Russian
Аудио 2: 48 kHz, AC3 Dolby Digital, 2/0 (L,R) ch, ~192 kbps - English
Субтитры: отсутствуют

Подробные технические данные

General
Complete name : D:\Public\Animal Farm (1954) HDRip [Rus - Selena Int. & Eng].avi
Format : AVI
Format/Info : Audio Video Interleave
File size : 1.36 GiB
Duration : 1 h 12 min
Overall bit rate : 2 695 kb/s
Movie name : Animal Farm
Director : Joy Batchelor, John Halas
Genre : Animation, Drama
Writing application : VirtualDubMod 1.5.10.2 (build 2540/release)
Original source form/Name : Cartoon
Video
ID : 0
Format : MPEG-4 Visual
Format profile : Advanced [email protected]
Format settings, BVOP : 1
Format settings, QPel : No
Format settings, GMC : No warppoints
Format settings, Matrix : Default (MPEG)
Codec ID : XVID
Codec ID/Hint : XviD
Duration : 1 h 12 min
Bit rate : 2 297 kb/s
Width : 720 pixels
Height : 528 pixels
Display aspect ratio : 4:3
Frame rate : 24.000 FPS
Color space : YUV
Chroma subsampling : 4:2:0
Bit depth : 8 bits
Scan type : Progressive
Compression mode : Lossy
Bits/(Pixel*Frame) : 0.252
Stream size : 1.16 GiB (85%)
Writing library : XviD 1.2.1 (UTC 2008-12-04)
Audio #1
ID : 1
Format : AC-3
Format/Info : Audio Coding 3
Format settings, Endianness : Big
Codec ID : 2000
Duration : 1 h 12 min
Bit rate mode : Constant
Bit rate : 192 kb/s
Channel(s) : 2 channels
Channel positions : Front: L R
Sampling rate : 48.0 kHz
Frame rate : 31.250 FPS (1536 SPF)
Bit depth : 16 bits
Compression mode : Lossy
Stream size : 99.0 MiB (7%)
Alignment : Split accross interleaves
Interleave, duration : 42 ms (1.00 video frame)
Interleave, preload duratio : 500 ms
Title : Russian
Service kind : Complete Main
Audio #2
ID : 2
Format : AC-3
Format/Info : Audio Coding 3
Format settings, Endianness : Big
Codec ID : 2000
Duration : 1 h 12 min
Bit rate mode : Constant
Bit rate : 192 kb/s
Channel(s) : 2 channels
Channel positions : Front: L R
Sampling rate : 48.0 kHz
Frame rate : 31.250 FPS (1536 SPF)
Bit depth : 16 bits
Compression mode : Lossy
Stream size : 99.0 MiB (7%)
Alignment : Split accross interleaves
Interleave, duration : 42 ms (1.00 video frame)
Interleave, preload duratio : 500 ms
Title : English
Service kind : Complete Main

Скриншоты



Display posts:    

Current time is: 05-Jul 13:12

All times are UTC ± 0


You cannot post new topics in this forum
You cannot reply to topics in this forum
You cannot edit your posts in this forum
You cannot delete your posts in this forum
You cannot vote in polls in this forum
You cannot attach files in this forum
You cannot download files in this forum

!ATTENTION!
The site does not give electronic versions of products, and is engaged only in a collecting and cataloguing of the references sent and published at a forum by our readers. If you are the legal owner of any submitted material and do not wish that the reference to it was in our catalogue, contact us and we shall immediately remove her. Files for an exchange on tracker are given by users of a site, and the administration does not bear the responsibility for their maintenance. The request to not fill in the files protected by copyrights, and also files of the illegal maintenance!