Ивановский Торрент трекер
Яндекс.Погода
 

[Quote]
HUNTER

Жёлтая подводная лодка / Битлз
Yellow Submarine / The Beatles

Страна: Великобритания
Жанр: музыкальный, приключения
Продолжительность: 01:29:41
Год выпуска: 1968
Перевод: Авторский (одноголосый закадровый) Алексея Михалёва
Русские субтитры: нет
Режиссёр: Джордж Даннинг /George Dunning/
Рецензия Михаила Иванова: Мультипликационные персонажи, сильно напоминающие знаменитую четверку "Битлз", поют и совершают путешествие на желтой подводной лодке по фантастической стране Пепперлэнд, борясь за любовь, дружбу, цветы и музыку против злых и плохих уродцев - синих плохишей. Божественная музыка "Битлз" 60-х годов и психоделическая анимация удачно дополняют друг друга.
Доп. информация: исходник от xfiles; перевод Михалёва оцифровал и подготовил karlll
!!!!! местами значительное английское эхо
!!!!! местами перевод на грани разборчивости
!!!!! есть минутный не переведённый эпизод из-за различий версий мульта

~Семпл~
Качество: HDRip
Формат: MKV
Видео: MPEG4 (H264) 720x432 23.976fps 2017Kbps
Аудио: Dolby AC3 48KHz 2ch 224Kbps
Субтитры: "отсутствуют"

Подробные технические данные

Формат : Matroska
Версия формата : Version 2
Размер файла : 1,40 Гбайт
Продолжительность : 1 ч. 29 м.
Общий поток : 2242 Кбит/сек
Дата кодирования : UTC 2018-01-23 16:28:24
Программа кодирования : mkvmerge v6.9.1 ('Blue Panther') 32bit built on Apr 18 2014 18:15:44
Библиотека кодирования : libebml v1.3.0 + libmatroska v1.4.1
Видео
Идентификатор : 1
Формат : AVC
Формат/Информация : Advanced Video Codec
Профиль формата : [email protected]
Параметр CABAC формата : Да
Параметр ReFrames формата : 7 кадров
Идентификатор кодека : V_MPEG4/ISO/AVC
Продолжительность : 1 ч. 29 м.
Битрейт : 2017 Кбит/сек
Ширина : 720 пикселей
Высота : 432 пикселя
Соотношение сторон : 1,667
Режим частоты кадров : Постоянный
Частота кадров : 23,976 кадра/сек
Цветовое пространство : YUV
Субдискретизация насыщенности : 4:2:0
Битовая глубина : 8 бит
Тип развёртки : Прогрессивная
Бит/(Пиксели*Кадры) : 0.270
Размер потока : 1,24 Гбайт (88%)
Заголовок : Yellow Submarine (1968)
Библиотека кодирования : x264 core 152 r2851kMod ba24899
Настройки программы : cabac=1 / ref=7 / deblock=1:-1:-1 / analyse=0x3:0x113 / me=umh / subme=9 / psy=1 / fade_compensate=0.00 / psy_rd=1.00:0.20 / mixed_ref=1 / me_range=24 / chroma_me=1 / trellis=2 / 8x8dct=1 / cqm=0 / deadzone=21,11 / fast_pskip=0 / chroma_qp_offset=-3 / threads=6 / lookahead_threads=1 / sliced_threads=0 / nr=0 / decimate=0 / interlaced=0 / bluray_compat=0 / constrained_intra=0 / bframes=7 / b_pyramid=2 / b_adapt=2 / b_bias=0 / direct=3 / weightb=1 / open_gop=0 / weightp=2 / keyint=250 / keyint_min=23 / scenecut=40 / intra_refresh=0 / rc_lookahead=50 / rc=2pass / mbtree=1 / bitrate=2017 / ratetol=1.0 / qcomp=0.60 / qpmin=0 / qpmax=69 / qpstep=4 / cplxblur=20.0 / qblur=0.5 / vbv_maxrate=14000 / vbv_bufsize=14000 / nal_hrd=none / filler=0 / ip_ratio=1.40 / aq=1:1.00
Язык : English
Default : Да
Forced : Нет
Аудио
Идентификатор : 2
Формат : AC-3
Формат/Информация : Audio Coding 3
Расширение режима : CM (complete main)
Параметр Endianness формата : Big
Идентификатор кодека : A_AC3
Продолжительность : 1 ч. 29 м.
Вид битрейта : Постоянный
Битрейт : 224 Кбит/сек
Каналы : 2 канала
Расположение каналов : Front: L R
Частота : 48,0 КГц
Битовая глубина : 16 бит
Метод сжатия : С потерями
Размер потока : 144 Мбайт (10%)
Заголовок : Михалёв
Язык : Russian
Default : Да
Forced : Нет

Скриншоты



Display posts:    

Current time is: 11-Aug 00:57

All times are UTC ± 0


You cannot post new topics in this forum
You cannot reply to topics in this forum
You cannot edit your posts in this forum
You cannot delete your posts in this forum
You cannot vote in polls in this forum
You cannot attach files in this forum
You cannot download files in this forum

!ATTENTION!
The site does not give electronic versions of products, and is engaged only in a collecting and cataloguing of the references sent and published at a forum by our readers. If you are the legal owner of any submitted material and do not wish that the reference to it was in our catalogue, contact us and we shall immediately remove her. Files for an exchange on tracker are given by users of a site, and the administration does not bear the responsibility for their maintenance. The request to not fill in the files protected by copyrights, and also files of the illegal maintenance!