Ивановский Торрент трекер
Яндекс.Погода
Статистика раздачи
Размер:  3.4 GB   |    Зарегистрирован:  5 месяцев 13 дней   |    Скачан:  0 раз
Сидов:  40  [  0 KB/s  ]   Личеров:  3  [  0 KB/s  ]   Подробная статистика пиров
 
     
 
 

[Цитировать]
HUNTER

Жги!
Страна: Россия
Студия: Марс Медиа Энтертейнмент, Sputnik Films
Жанр: драма
Год выпуска: 2017
Продолжительность: 01:38:29
Перевод: Не требуется
Субтитры: нет
Оригинальная аудиодорожка: русский
Режиссёр: Кирилл Плетнёв
В ролях: Инга Оболдина, Виктория Исакова, Анна Уколова, Владимир Ильин, Данил Стеклов, Никита Кологривый, Татьяна Догилева, Ольга Бузова, Александра Бортич, Екатерина Агеева

Описание: У каждого человека есть право на жизнь, свободу и стремление к счастью. Надсмотрщице в женской колонии выпадает шанс изменить свою судьбу, приняв участие в главном песенном шоу страны. Однако сильного голоса для этого недостаточно. Через множество комичных ситуаций и череду драматических событий героине предстоит заново найти себя. А единственным человеком, способный ей в этом помочь, оказывается одна из заключенных, в прошлом — певица. Честная и пронзительная история о том, что жизнь полна возможностей, но у каждой из них есть своя цена…

Sample
Тип релиза: WEB-DL 1080p
Контейнер: MKV
Видео: MPEG4 AVC Video, H264, 1920x804, 24 fps, 4465 kbps
Аудио: Russian (AC3, 6 ch, 384 kbps, 16 bits, 48.0 KHz) - оригинал

MediaInfo

General
Unique ID : 172494385683484043324473384024559440761 (0x81C535D3C5E689CD85E124F8FDA5D379)
Complete name : D:\Жги 2017 WEB-DL 1080p.mkv
Format : Matroska
Format version : Version 2
File size : 3.40 GiB
Duration : 1h 38mn
Overall bit rate : 4 947 Kbps
Encoded date : UTC 2018-01-17 19:13:55
Writing application : mkvmerge v8.3.0 ('Over the Horizon') 64bit
Writing library : libebml v1.3.1 + libmatroska v1.4.2
DURATION : 01:38:29.184000000
NUMBER_OF_FRAMES : 184662
NUMBER_OF_BYTES : 283640832
_STATISTICS_WRITING_APP : mkvmerge v8.3.0 ('Over the Horizon') 64bit
_STATISTICS_WRITING_DATE_UTC : 2018-01-17 19:13:55
_STATISTICS_TAGS : BPS DURATION NUMBER_OF_FRAMES NUMBER_OF_BYTES
Video
ID : 1
Format : AVC
Format/Info : Advanced Video Codec
Format profile : High@L4.0
Format settings, CABAC : Yes
Format settings, ReFrames : 5 frames
Codec ID : V_MPEG4/ISO/AVC
Duration : 1h 38mn
Bit rate : 4 465 Kbps
Width : 1 920 pixels
Height : 804 pixels
Display aspect ratio : 2.40:1
Frame rate mode : Constant
Frame rate : 24.000 fps
Color space : YUV
Chroma subsampling : 4:2:0
Bit depth : 8 bits
Scan type : Progressive
Bits/(Pixel*Frame) : 0.121
Stream size : 3.07 GiB (90%)
Language : English
Default : Yes
Forced : No
Color primaries : BT.709
Transfer characteristics : BT.709
Matrix coefficients : BT.709
Audio
ID : 2
Format : AC-3
Format/Info : Audio Coding 3
Mode extension : CM (complete main)
Format settings, Endianness : Big
Codec ID : A_AC3
Duration : 1h 38mn
Bit rate mode : Constant
Bit rate : 384 Kbps
Channel count : 6 channels
Channel positions : Front: L C R, Side: L R, LFE
Sampling rate : 48.0 KHz
Bit depth : 16 bits
Compression mode : Lossy
Stream size : 271 MiB (8%)
Language : Russian
Default : Yes
Forced : No
Menu
00:00:00.000 : en:Глава 1
00:05:03.625 : en:Глава 2
00:09:35.125 : en:Глава 3
00:15:35.083 : en:Глава 4
00:22:05.166 : en:Глава 5
00:27:03.416 : en:Глава 6
00:34:31.666 : en:Глава 7
00:41:33.541 : en:Глава 8
00:48:15.707 : en:Глава 9
00:55:03.998 : en:Глава 10
01:02:29.373 : en:Глава 11
01:09:49.373 : en:Глава 12
01:15:23.956 : en:Глава 13
01:20:00.747 : en:Глава 14
01:25:49.830 : en:Глава 15
01:32:11.288 : en:Глава 16

Скриншоты


[iv-torrents.ru].t82622.torrent
Торрент: Зарегистрирован [ 2018-08-05 17:06 ] · 916A44CFB0DEC3AB4770621159A7A852CCBEC06D

Скачать .torrent

Скачать

17 KB

Статус: проверено
Скачан: 0 раз
Размер: 3.4 GB
terms.php


Показать сообщения:    

Текущее время: 19-Янв 10:04

Часовой пояс: UTC ± 0


Вы не можете начинать темы
Вы не можете отвечать на сообщения
Вы не можете редактировать свои сообщения
Вы не можете удалять свои сообщения
Вы не можете голосовать в опросах
Вы не можете прикреплять файлы к сообщениям
Вы можете скачивать файлы

!ВНИМАНИЕ!
Сайт не предоставляет электронные версии произведений, а занимается лишь коллекционированием и каталогизацией ссылок, присылаемых и публикуемых на форуме нашими читателями. Если вы являетесь правообладателем какого-либо представленного материала и не желаете, чтобы ссылка на него находилась в нашем каталоге, свяжитесь с нами, и мы незамедлительно удалим ее. Файлы для обмена на трекере предоставлены пользователями сайта, и администрация не несет ответственности за их содержание. Просьба не заливать файлы, защищенные авторскими правами, а также файлы нелегального содержания!