Ивановский Торрент трекер
Яндекс.Погода
 

[Quote]
HUNTER

Землетрясение
Страна: Армения, Россия
Студия: Марс Медиа Энтертейнмент
Жанр: драма
Год выпуска: 2016
Продолжительность: 01:40:11
Перевод: Не требуется
Субтитры: нет
Оригинальная аудиодорожка: русская
Режиссер: Сарик Андреасян
В ролях: Константин Лавроненко, Мария Миронова, Виктор Степанян, Татев Овакимян, Микаэл Погосян, Грант Тохатян, Даниил Муравьев-Изотов, Микаэль Джанибекян, Сос Джанибекян, Арсен Григорян
Описание: 7 декабря 1988 года в Армении произошло землетрясение, охватившее почти половину территории республики. Были разрушены города Спитак, Ленинакан, Кировакан, Степанаван и ещё более 300 населённых пунктов. 25 тысяч человек погибли, 19 тысяч стали инвалидами, больше полумиллиона остались без крыши над головой.
На фоне природной катастрофы разворачивается история двух героев — 45-летнего Константина Бережного и 20-летнего Роберта Мелконяна. Судьба сталкивает их не впервые — много лет назад в автокатастрофе по вине Бережного погибли родители Роберта. Константин провел несколько лет в тюрьме, а маленького Роберта приютили родственники. По странному стечению обстоятельств Бережной возвращается к своей семье в день страшного землетрясения: его ждут жена, дочь, сын… и Роберт, который так и не простил ему гибели своих родителей. По иронии судьбы, герои оказываются в одном спасательном отряде, но узнают друг друга не сразу.
Меню: есть, статичное, озвученное
Сэмпл
Тип релиза: DVD5
Контейнер: DVD-Video
Видео: PAL 16:9 (720x576(0.566)) MPEG Video, 25,000 кадр/сек, 5865 Кбит/сек
Аудио: Russian (Dolby AC-3, 2 ch) 192 Кбит/сек, 48.0 КГц

DVDInfo

Title: ZTN
Disk size: 4.07 Gb ( 4 268 076,00 KBytes )
DVD Type: DVD-5
Enabled regions: 1,2,3,4,5,6,7,8
VTS_01:
Title Play Length: 01:40:27
Video: PAL 16:9 (720x576) VBR,Auto Letterboxed
Audio (1):
Russian (Dolby AC3, 2 ch)
Subtitles (0)
* Menus Information *
VIDEO_TS Menu
Video:
NTSC 4:3 (720x480) VBR
Auto Pan&Scan, Auto Letterboxed
Audio (0)
Russian Language Unit :
Title Menu
VTS_01 Menu
Video:
PAL 16:9 (720x576) VBR
Auto Letterboxed
Audio (1):
Not specified (Dolby AC3, 2 ch)
Russian Language Unit :
Root Menu
Chapter (PTT) Menu

MediaInfo

Общее
Полное имя : ZTN\VIDEO_TS\VTS_01_1.VOB
Формат : MPEG-PS
Размер файла : 1024 Мбайт
Продолжительность : 23 м. 9 с.
Режим общего битрейта : Переменный
Общий поток : 6180 Кбит/сек
Видео
Идентификатор : 224 (0xE0)
Формат : MPEG Video
Версия формата : Version 2
Профиль формата : [email protected]
Настройки формата : CustomMatrix / BVOP
Параметр BVOP формата : Да
Параметр матрицы формата : Выборочная
Параметр GOP формата : M=3, N=15
Продолжительность : 23 м. 9 с.
Вид битрейта : Переменный
Битрейт : 5865 Кбит/сек
Максимальный битрейт : 8000 Кбит/сек
Ширина : 720 пикселей
Высота : 576 пикселей
Соотношение сторон : 16:9
Частота кадров : 25,000 кадров/сек
Стандарт вещания : PAL
Цветовое пространство : YUV
Субдискретизация насыщенности : 4:2:0
Битовая глубина : 8 бит
Метод сжатия : С потерями
Бит/(Пиксели*Кадры) : 0.566
Размер потока : 972 Мбайт (95%)
Аудио
Идентификатор : 189 (0xBD)-128 (0x80)
Формат : AC-3
Формат/Информация : Audio Coding 3
Режим смешивания : DVD-Video
Продолжительность : 23 м. 9 с.
Вид битрейта : Постоянный
Битрейт : 192 Кбит/сек
Каналы : 2 канала
Расположение каналов : Front: L R
Частота : 48,0 КГц
Частота кадров : 31,250 кадров/сек (1536 SPF)
Битовая глубина : 16 бит
Метод сжатия : С потерями
Задержка видео : -50 мс.
Размер потока : 31,8 Мбайт (3%)
ServiceKind/String : Complete Main

Скриншоты меню

Скриншоты



Display posts:    

Current time is: 13-Jul 11:49

All times are UTC ± 0


You cannot post new topics in this forum
You cannot reply to topics in this forum
You cannot edit your posts in this forum
You cannot delete your posts in this forum
You cannot vote in polls in this forum
You cannot attach files in this forum
You cannot download files in this forum

!ATTENTION!
The site does not give electronic versions of products, and is engaged only in a collecting and cataloguing of the references sent and published at a forum by our readers. If you are the legal owner of any submitted material and do not wish that the reference to it was in our catalogue, contact us and we shall immediately remove her. Files for an exchange on tracker are given by users of a site, and the administration does not bear the responsibility for their maintenance. The request to not fill in the files protected by copyrights, and also files of the illegal maintenance!