Ивановский Торрент трекер
Яндекс.Погода
 

[Quote]
sergey82

Здравствуй, мир / Hello World- Продолжительность: 95 мин.
Год выпуска: 2019
Страна: Япония
Тип: Movie
Жанр: фантастика
Режиссёр: Томохико Ито
Студия: Graphinica-Описание: Япония, Киото. 2027 год. Старшеклассник Наоми Катагаки сталкивается со странным парнем, который внешне похож на него. Более того, незнакомец утверждает, что он тоже Наоми, но прибыл из будущего, 2037 года. Разобравшись в ситуации и объединив свои силы, эта парочка должна изменить будущее и спасти одноклассницу Рури Итигё, с которой нынешний Наоми начнёт встречаться через три месяца.-Информационные ссылки: AniDB || World Art
Качество: BDRip
Рип: [Beatrice-Raws]
Формат видео: MKV
Наличие линковки: нет
Тип релиза: без хардсаба
Видео: HEVC, 10 bit, 1920x1080, 23.976 fps, 11510 Kbps
Аудио: JAP: FLAC, 48.0 kHz, 2ch, 1 256 Kbps
Субтитры: RUS: ASS (в составе контейнера)-#1 Субтитры: NaikoSub
-

Отличия от других раздач

https://rutracker.org/forum/viewtopic.php?t=5881758 [1080p]

MediaInfo

Общее
Уникальный идентификатор : 252580872632131596794360488024418121122 (0xBE054E7D37B0E0B821DCA01A5CE175A2)
Полное имя : E:\Раздачи\[Beatrice-Raws] Hello World [BDRip 1080p x265 FLAC]\[Beatrice-Raws] Hello World [BDRip 1080p x265 FLAC].mkv
Формат : Matroska
Версия формата : Version 4
Размер файла : 8,71 Гбайт
Продолжительность : 1 ч. 37 м.
Режим общего битрейта : Переменный
Общий поток : 12,8 Мбит/сек
Дата кодирования : UTC 2020-05-02 07:58:01
Программа кодирования : mkvmerge v46.0.0 ('No Deeper Escape') 64-bit
Библиотека кодирования : libebml v1.3.10 + libmatroska v1.5.2
Видео
Идентификатор : 1
Формат : HEVC
Формат/Информация : High Efficiency Video Coding
Профиль формата : Main [email protected]@Main
Идентификатор кодека : V_MPEGH/ISO/HEVC
Продолжительность : 1 ч. 37 м.
Битрейт : 11,5 Мбит/сек
Ширина : 1 920 пикселей
Высота : 1 080 пикселей
Соотношение сторон : 16:9
Режим частоты кадров : Постоянный
Частота кадров : 23,976 (24000/1001) кадра/сек
Цветовое пространство : YUV
Субдискретизация насыщенности : 4:2:0
Битовая глубина : 10 бит
Бит/(Пиксели*Кадры) : 0.232
Размер потока : 7,86 Гбайт (90%)
Библиотека кодирования : x265 3.3+14-4015cc7a1952:[DJATOM's Mod][Windows][GCC 9.2.1][64 bit] 10bit
Настройки программы : cpuid=1049583 / frame-threads=16 / numa-pools=24,24 / wpp / pmode / pme / no-psnr / no-ssim / log-level=2 / csv / csv-log-level=2 / input-csp=1 / input-res=1920x1080 / interlace=0 / total-frames=140580 / level-idc=0 / high-tier=1 / uhd-bd=0 / ref=4 / no-allow-non-conformance / no-repeat-headers / annexb / no-aud / no-hrd / info / hash=0 / no-temporal-layers / open-gop / min-keyint=23 / keyint=240 / gop-lookahead=0 / bframes=9 / b-adapt=2 / b-pyramid / bframe-bias=0 / rc-lookahead=20 / lookahead-slices=6 / scenecut=40 / hist-scenecut=0 / radl=0 / no-splice / no-intra-refresh / ctu=64 / min-cu-size=8 / no-rect / no-amp / max-tu-size=32 / tu-inter-depth=4 / tu-intra-depth=4 / limit-tu=0 / rdoq-level=2 / dynamic-rd=0.00 / no-ssim-rd / signhide / no-tskip / nr-intra=0 / nr-inter=0 / no-constrained-intra / no-strong-intra-smoothing / max-merge=5 / limit-refs=1 / limit-modes / me=3 / subme=5 / merange=48 / temporal-mvp / no-frame-dup / no-hme / weightp / weightb / analyze-src-pics / deblock=1:-1 / no-sao / no-sao-non-deblock / rd=5 / selective-sao=0 / no-early-skip / no-rskip / no-fast-intra / no-tskip-fast / no-cu-lossless / b-intra / no-splitrd-skip / rdpenalty=0 / psy-rd=2.00 / psy-rdoq=4.00 / rd-refine / no-lossless / cbqpoffs=-2 / crqpoffs=-2 / rc=crf / crf=15.0 / qcomp=0.72 / qpstep=4 / stats-write=0 / stats-read=0 / ipratio=1.40 / pbratio=1.30 / aq-mode=4 / aq-strength=0.86 / no-cutree / zone-count=0 / no-strict-cbr / qg-size=32 / no-rc-grain / qpmax=69 / qpmin=0 / no-const-vbv / sar=1 / overscan=0 / videoformat=5 / range=0 / colorprim=1 / transfer=1 / colormatrix=1 / chromaloc=0 / display-window=0 / cll=0,0 / min-luma=0 / max-luma=1023 / log2-max-poc-lsb=8 / vui-timing-info / vui-hrd-info / slices=1 / no-opt-qp-pps / no-opt-ref-list-length-pps / no-multi-pass-opt-rps / scenecut-bias=0.05 / hist-threshold=0.01 / no-opt-cu-delta-qp / no-aq-motion / no-hdr10 / no-hdr10-opt / no-dhdr10-opt / no-idr-recovery-sei / analysis-reuse-level=0 / analysis-save-reuse-level=0 / analysis-load-reuse-level=0 / scale-factor=0 / refine-intra=0 / refine-inter=0 / refine-mv=1 / refine-ctu-distortion=0 / no-limit-sao / ctu-info=0 / no-lowpass-dct / refine-analysis-type=0 / copy-pic=1 / max-ausize-factor=1.0 / no-dynamic-refine / no-single-sei / hevc-aq / no-svt / no-field / qp-adaptation-range=4.00 / no-scenecut-aware-qpconformance-window-offsets / right=0 / bottom=0
Язык : Japanese
Default : Да
Forced : Нет
Цветовой диапазон : Limited
Основные цвета : BT.709
Характеристики трансфера : BT.709
Коэффициенты матрицы : BT.709
Аудио
Идентификатор : 2
Формат : FLAC
Формат/Информация : Free Lossless Audio Codec
Идентификатор кодека : A_FLAC
Продолжительность : 1 ч. 37 м.
Вид битрейта : Переменный
Битрейт : 1 256 Кбит/сек
Каналы : 2 канала
Channel layout : L R
Частота : 48,0 КГц
Частота кадров : 11,719 кадров/сек (4096 SPF)
Битовая глубина : 24 бит
Метод сжатия : Без потерь
Размер потока : 878 Мбайт (10%)
Библиотека кодирования : CUETools FLACCL 2.1.6
Язык : Japanese
Default : Да
Forced : Нет
Меню
00:00:00.000 : en:Part A
00:02:15.510 : en:Part B
00:05:52.394 : en:Part C
00:10:32.841 : en:Part D
00:15:15.373 : en:Part E
00:22:31.934 : en:Part F
00:26:54.029 : en:Part G
00:29:16.755 : en:Part H
00:34:29.276 : en:Part I
00:42:15.867 : en:Part J
00:44:26.956 : en:Part K
00:52:14.381 : en:Part L
00:56:46.612 : en:Part M
00:59:27.689 : en:Part N
01:03:15.542 : en:Part O
01:07:17.408 : en:Part P
01:11:39.587 : en:Part Q
01:16:32.963 : en:Part R
01:19:32.851 : en:Part S
01:27:59.149 : en:Part T
01:31:07.462 : en:Part U
01:32:20.952 : en:END

avdump

File: E:\Раздачи\[Beatrice-Raws] Hello World [BDRip 1080p x265 FLAC]\[Beatrice-Raws] Hello World [BDRip 1080p x265 FLAC].mkv
Duration: 01:37:43 (5863.36)
Track #1: video
lang: jpn (2)
codc: V_MPEGH/ISO/HEVC -> Unknown (1)
reso: 1920x1080 -> 16:9
fram: 23.976 fps
rate: 11510 kbps (11509.5)
dura: 01:37:43 (5863.32)
size: 7.86 GB (8435493419)
Track #2: audio
lang: jpn -> Japanese (2)
codc: A_FLAC -> Other (15)
chan: 2 -> Stereo
samp: 48000 Hz
rate: 1256 kbps (1256.05)
dura: 01:37:43 (5863.34)
size: 877.93 MB (920578995)
Sizes: (check sanity)
disk: 8.71 GB (9357356708)
trac: 4.71 GB (5061105118) [based on track size]
bitr: 8.71 GB (9356068588) [based on bitrate]
tdif: 4.00 GB (4296251590) 45.91%
bdif: 1.23 MB (1288119) 0.01%


Display posts:    

Current time is: 04-Jun 11:33

All times are UTC ± 0


You cannot post new topics in this forum
You cannot reply to topics in this forum
You cannot edit your posts in this forum
You cannot delete your posts in this forum
You cannot vote in polls in this forum
You cannot attach files in this forum
You cannot download files in this forum

!ATTENTION!
The site does not give electronic versions of products, and is engaged only in a collecting and cataloguing of the references sent and published at a forum by our readers. If you are the legal owner of any submitted material and do not wish that the reference to it was in our catalogue, contact us and we shall immediately remove her. Files for an exchange on tracker are given by users of a site, and the administration does not bear the responsibility for their maintenance. The request to not fill in the files protected by copyrights, and also files of the illegal maintenance!