Ивановский Торрент трекер
Яндекс.Погода
Статистика раздачи
Размер:  3.68 GB   |    Зарегистрирован:  5 месяцев 13 дней   |    Скачан:  0 раз
Сидов:  3  [  0 KB/s  ]   Личеров:  2  [  0 KB/s  ]   Подробная статистика пиров
 
     
 
 

[Цитировать]
HUNTER

Закон джунглей
La loi de la jungle / Struggle for Life

Страна: Франция
Жанр: комедия
Год выпуска: 2016
Продолжительность: 01:35:37
Перевод: Субтитры
Субтитры: английские, немецкие, французские, русские
Оригинальная аудиодорожка: французский
Режиссер: Антонин Перетятько / Antonin Peretjatko
В ролях: Венсан Макен, Вимала Понс, Паскаль Лежитимюс, Матьё Амальрик, Фред Туш, Родольф Поли, Жан-Люк Бидо, Pascal Tagnati, Thomas De Pourquery, Филипп Лоденбаш
Описание:
Марк Шатень - стажер в Министерстве стандартизации. Его посылают в Гвиану для приведения в соответствие с европейскими нормами строительного проекта «Гвиа-Снег». Эта первая в Амазонии крытая лыжная трасса должна обеспечить новый подъем туризма в Гвиане. Незадачливому стажеру дают в напарники симпатичную, но строптивую девушку.
- || [box=#161C1E,#161C1E]
участник фестиваля[/box]2O18 года
-Тип релиза: WEB-DL 1080p
Контейнер: MKV
Видео: AVC (x264), 1912x1036 (1.85:1) at 25,000 fps, 5011 Кbps
Аудио 1: AC3; 384 Kbps; CBR; 6 ch; 48 khz | Французский |
Формат субтитров: softsub (SRT);

Скриншоты || x264 Info || MediaInfo || Notes

MediaInfo

Код:General
Unique ID : 228313041720172116104048459517482447519 (0xABC37E0C3E00EF31892F8F4472A7329F)
Complete name : Закон джунглей.2016.RUSSUB.1080p.WEB-DL.x264-SiGeRiS.mkv
Format : Matroska
Format version : Version 4 / Version 2
File size : 3.68 GiB
Duration : 1 h 35 min
Overall bit rate : 5 504 kb/s
Movie name : Struggle for Life [2016] [1080p] RUSSUB
Encoded date : UTC 2018-01-26 03:33:06
Writing application : mkvmerge v7.8.0 ('River Man') 32bit built on Mar 27 2015 16:18:02
Writing library : libebml v1.3.1 + libmatroska v1.4.2
Video
ID : 1
Format : AVC
Format/Info : Advanced Video Codec
Format profile : High@L4
Format settings : CABAC / 4 Ref Frames
Format settings, CABAC : Yes
Format settings, RefFrames : 4 frames
Codec ID : V_MPEG4/ISO/AVC
Duration : 1 h 35 min
Bit rate : 5 011 kb/s
Width : 1 912 pixels
Height : 1 036 pixels
Display aspect ratio : 1.85:1
Frame rate mode : Constant
Frame rate : 25.000 FPS
Color space : YUV
Chroma subsampling : 4:2:0
Bit depth : 8 bits
Scan type : Progressive
Bits/(Pixel*Frame) : 0.101
Stream size : 3.35 GiB (91%)
Title : profile.php?mode=viewprofile&u=22488948
Language : French
Default : Yes
Forced : No
Color range : Limited
Color primaries : BT.709
Transfer characteristics : BT.709
Matrix coefficients : BT.709
Audio
ID : 2
Format : AC-3
Format/Info : Audio Coding 3
Codec ID : A_AC3
Duration : 1 h 35 min
Bit rate mode : Constant
Bit rate : 384 kb/s
Channel(s) : 6 channels
Channel positions : Front: L C R, Side: L R, LFE
Sampling rate : 48.0 kHz
Frame rate : 31.250 FPS (1536 SPF)
Bit depth : 16 bits
Compression mode : Lossy
Stream size : 263 MiB (7%)
Language : French
Service kind : Complete Main
Default : Yes
Forced : No
Text #1
ID : 3
Format : UTF-8
Codec ID : S_TEXT/UTF8
Codec ID/Info : UTF-8 Plain Text
Language : Russian
Default : Yes
Forced : No
Text #2
ID : 4
Format : UTF-8
Codec ID : S_TEXT/UTF8
Codec ID/Info : UTF-8 Plain Text
Language : French
Default : No
Forced : No
Text #3
ID : 5
Format : UTF-8
Codec ID : S_TEXT/UTF8
Codec ID/Info : UTF-8 Plain Text
Language : German
Default : No
Forced : No
Text #4
ID : 6
Format : UTF-8
Codec ID : S_TEXT/UTF8
Codec ID/Info : UTF-8 Plain Text
Language : English
Default : No
Forced : No
Цитата:[box=#F5F5F5,#F5F5F5] За поиск исходника, огромная благодарность Slipknot_cooler[/box]
[iv-torrents.ru].t82640.torrent
Торрент: Зарегистрирован [ 2018-08-05 17:06 ] · 2979F6F899534897841CFAA78DC1B05AA29CEEBC

Скачать .torrent

Скачать

19 KB

Статус: проверено
Скачан: 0 раз
Размер: 3.68 GB
terms.php


Показать сообщения:    

Текущее время: 19-Янв 10:20

Часовой пояс: UTC ± 0


Вы не можете начинать темы
Вы не можете отвечать на сообщения
Вы не можете редактировать свои сообщения
Вы не можете удалять свои сообщения
Вы не можете голосовать в опросах
Вы не можете прикреплять файлы к сообщениям
Вы можете скачивать файлы

!ВНИМАНИЕ!
Сайт не предоставляет электронные версии произведений, а занимается лишь коллекционированием и каталогизацией ссылок, присылаемых и публикуемых на форуме нашими читателями. Если вы являетесь правообладателем какого-либо представленного материала и не желаете, чтобы ссылка на него находилась в нашем каталоге, свяжитесь с нами, и мы незамедлительно удалим ее. Файлы для обмена на трекере предоставлены пользователями сайта, и администрация не несет ответственности за их содержание. Просьба не заливать файлы, защищенные авторскими правами, а также файлы нелегального содержания!