Ивановский Торрент трекер
Яндекс.Погода
 

[Цитировать]
sergey82

Информация о фильме
Оригинальное название: Заклятие оракула
Год выхода: 2018
Жанр: триллер, детектив, ужасы
Режиссер: Бактияр Сейтказиев
Сценарий: Бактияр Сейтказиев
В ролях: Еламан Есентаев, Азиз Бейшеналиев, Аяна Кусаинова, Элли Пак, Айсулу Косаева, Камила Жусупова, Руми Назаров, Самат Рамазанов, Эльдар Жаксылыков, Алексей Кудинов и др.
О фильме:
Психологический триллер с элементами детектива «Заклятие Оракула» расскажет историю молодого человека, который стал невольным исполнителем чужой злой воли. Главный герой приезжает в Алматы в рабочую командировку, и ничто не предвещает беды.
Однако некий хитроумный злодей толкает его на страшное преступление и заставляет убить двух человек. При этом, герой не понимает, кто может желать ему зла и кто руководит его действиями.
Страна: Казахстан
Продолжительность: 01:27:50
Язык: Русский
Файл
Кодек: х.264
Качество: SATRip-AVC
Видео: 720x304 (2.35:1), 25.000 fps, AVC MPEG-4 (х.264), High@L3.1 ~1583 kbps, 0.289 bit/pixel
Аудио: 48 kHz, AC3 Dolby Digital, 2/0 (L,R) ch, ~192 kbps
Субтитры: отсутствуют
Реклама отсутствует.

Трейлер

Трейлер

MediaInfo

General
Unique ID : 323725732312297343822735704971451170252 (0xF38B4EE3C36F94BE1E5910FA574DFDCC)
Complete name : E:Zaklyatie orakyla.2018_Klayd X.mkv
Format : Matroska
File size : 1.09 GiB
Duration : 1h 27mn
Overall bit rate : 1 777 Kbps
Encoded date : UTC 2018-10-13 07:34:46
Writing application : mkvmerge v27.0.0 ('Metropolis') 32-bit
Writing library : libebml v1.3.6 + libmatroska v1.4.9
Video
ID : 1
Format : AVC
Format/Info : Advanced Video Codec
Format profile : High@L3.1
Format settings, CABAC : Yes
Format settings, ReFrames : 16 frames
Codec ID : V_MPEG4/ISO/AVC
Duration : 1h 27mn
Bit rate : 1 583 Kbps
Width : 720 pixels
Height : 304 pixels
Display aspect ratio : 2.35:1
Frame rate : 25.000 fps
Color space : YUV
Chroma subsampling : 4:2:0
Bit depth : 8 bits
Scan type : Progressive
Bits/(Pixel*Frame) : 0.289
Stream size : 974 MiB (87%)
Writing library : x264 core 146 r2538 121396c
Encoding settings : cabac=1 / ref=16 / deblock=1:-2:-1 / analyse=0x3:0x133 / me=tesa / subme=10 / psy=1 / psy_rd=1.00:0.20 / mixed_ref=1 / me_range=32 / chroma_me=1 / trellis=2 / 8x8dct=1 / cqm=0 / deadzone=21,11 / fast_pskip=1 / chroma_qp_offset=-3 / threads=3 / lookahead_threads=1 / sliced_threads=0 / nr=0 / decimate=1 / interlaced=0 / bluray_compat=0 / constrained_intra=0 / bframes=4 / b_pyramid=2 / b_adapt=2 / b_bias=0 / direct=3 / weightb=1 / open_gop=0 / weightp=2 / keyint=250 / keyint_min=25 / scenecut=40 / intra_refresh=0 / rc_lookahead=60 / rc=2pass / mbtree=1 / bitrate=1583 / ratetol=1.0 / qcomp=0.60 / qpmin=0 / qpmax=69 / qpstep=4 / cplxblur=20.0 / qblur=0.5 / ip_ratio=1.40 / aq=1:1.00
Language : English
Audio
ID : 2
Format : AC-3
Format/Info : Audio Coding 3
Mode extension : CM (complete main)
Codec ID : A_AC3
Duration : 1h 27mn
Bit rate mode : Constant
Bit rate : 192 Kbps
Channel(s) : 2 channels
Channel positions : Front: L R
Sampling rate : 48.0 KHz
Bit depth : 16 bits
Compression mode : Lossy
Stream size : 121 MiB (11%)

Скриншоты



Показать сообщения:    

Текущее время: 17-Ноя 13:31

Часовой пояс: UTC ± 0


Вы не можете начинать темы
Вы не можете отвечать на сообщения
Вы не можете редактировать свои сообщения
Вы не можете удалять свои сообщения
Вы не можете голосовать в опросах
Вы не можете прикреплять файлы к сообщениям
Вы не можете скачивать файлы

!ВНИМАНИЕ!
Сайт не предоставляет электронные версии произведений, а занимается лишь коллекционированием и каталогизацией ссылок, присылаемых и публикуемых на форуме нашими читателями. Если вы являетесь правообладателем какого-либо представленного материала и не желаете, чтобы ссылка на него находилась в нашем каталоге, свяжитесь с нами, и мы незамедлительно удалим ее. Файлы для обмена на трекере предоставлены пользователями сайта, и администрация не несет ответственности за их содержание. Просьба не заливать файлы, защищенные авторскими правами, а также файлы нелегального содержания!