Ивановский Торрент трекер
Яндекс.Погода
 

[Quote]
HUNTER

Яблоко и Лук
Год выпуска: 2018
Страна: США
Жанр: комедия
Продолжительность: ≈11 мин.
Перевод: профессиональный (дублированный)
Режиссёр: Мигель Гонсалес / Miguel Gonzalez
Описание: Яблоко и Лук – лучшие друзья, которые живут в большом городе, населённом такими же «продуктовыми» жителями. Благодаря своему позитивному настрою и креативности Яблоко и Лук находят увлекательные приключения, преодолевают любые трудности и встречают новых друзей!
Релиз группы:
Доп. информация: Огромная благодарность #Antisnl# и xfiles за исходники DVB!
Качество: DVB
Формат: TS
Видео кодек: MPEG4
Аудио кодек: MP2
Видео: MPEG4 Video (H264) 720x576 (16:9) 25fps 1241-1981kbps
Аудио 1: MPEG Audio 48000Hz stereo 192kbps (Russian)
Аудио 2: MPEG Audio 48000Hz stereo 192kbps (English)

Список серий

1 серия – Новая жизнь / A New Life
2 серия – Идеальная команда / The Perfect Team
3 серия – Чаевые / Tips
4 серия – Праздник для Фалафеля / Falafel's Fun Day
5 серия – Яблоко в беде / Apple's in Trouble
6 серия – Четверо на одного / 4 on 1
7 серия – Кинопремьера Хот Дога / Hot Dog's Movie Premiere
8 серия – Пас бутылкой / Bottle Catch
9 серия – Автобусный тур Оладьи / Pancake’s Bus Tour
10 серия – Вечеринка / Block Party
11 серия – Сосредоточься, Яблоко / Apple's Focus
12 серия – Лапша / Lil' Noodle
13 серия – Гираноид будущего / Gyranoid of the Future
14 серия – Приколисты / Fun Proof
15 серия – В поисках кита / Whale Spotting
16 серия – Аномальная жара / Heatwave
17 серия – Яблоко за старшего / Apple's in Charge
18 серия – Батут Бургера / Burger's Trampoline
21 серия – Без лука / Onionless
22 серия – Взрывная вечеринка / Party Popper

Список минизодов

1 серия – Лифт / Lift
2 серия – Навести лоск / Buff Up My Head
3 серия – Ничего / Nothing Else
4 серия – Пора спать / Sleep
5 серия – Вода / Water
6 серия – Тачка / Car
7 серия – Пицца именинник / Pizza Party
8 серия – Прощай / Goodbye

Анаморфированные скриншоты


Подробные технические данные

General
ID : 8 (0x8)
Complete name : S01E01 Apple & Onion - A New Life.ts
Format : MPEG-TS
File size : 158 MiB
Duration : 10 min 47 s
Overall bit rate mode : Variable
Overall bit rate : 2 049 kb/s
Video
ID : 202 (0xCA)
Menu ID : 802 (0x322)
Format : AVC
Format/Info : Advanced Video Codec
Format profile : [email protected]
Format settings, CABAC : Yes
Format settings, RefFrames : 4 frames
Codec ID : 27
Duration : 10 min 47 s
Bit rate : 1 559 kb/s
Width : 720 pixels
Height : 576 pixels
Display aspect ratio : 16:9
Frame rate : 25.000 FPS
Standard : Component
Color space : YUV
Chroma subsampling : 4:2:0
Bit depth : 8 bits
Scan type : Interlaced
Scan type, store method : Separated fields
Scan order : Top Field First
Bits/(Pixel*Frame) : 0.150
Stream size : 120 MiB (76%)
Color range : Limited
Color primaries : BT.601 PAL
Transfer characteristics : BT.470 System B, BT.470 System G
Matrix coefficients : BT.601
Audio #1
ID : 302 (0x12E)
Menu ID : 802 (0x322)
Format : MPEG Audio
Format version : Version 1
Format profile : Layer 2
Codec ID : 3
Duration : 10 min 48 s
Bit rate mode : Constant
Bit rate : 192 kb/s
Channel(s) : 2 channels
Sampling rate : 48.0 kHz
Compression mode : Lossy
Delay relative to video : -24 ms
Stream size : 14.8 MiB (9%)
Language : Russian
Audio #2
ID : 402 (0x192)
Menu ID : 802 (0x322)
Format : MPEG Audio
Format version : Version 1
Format profile : Layer 2
Codec ID : 3
Duration : 10 min 48 s
Bit rate mode : Constant
Bit rate : 192 kb/s
Channel(s) : 2 channels
Sampling rate : 48.0 kHz
Compression mode : Lossy
Delay relative to video : -24 ms
Stream size : 14.8 MiB (9%)
Language : English

Ссылка на предыдущие и альтернативные раздачи

https://rutracker.org/forum/tracker.php?nm=Apple+Onion

Внимание! Раздача ведётся путём добавления новых серий

При каждом добавлении создётся новый торрент. Чтобы начать докачку новой серии, пользователям необходимо сделать следующее:
1) остановить скачивание;
2) удалить старый торрент у себя из клиента (старые серии удалять не надо);
3) скачать новый торрент и запустить его у себя в клиенте вместо старого, при этом указать клиенту путь в старую папку куда и должно происходить скачивание новых серий.
Ваш клиент при этом должен произвести хеширование (проверку) старой папки (если не производит сам - помогите ему сделать это), и будет докачивать только те серии, которых у вас ещё нет. Старые серии при этом не удаляются, а продолжают раздаваться!
Eсли вы уже удалили старые серии, то предотвратить повторную закачку старых серий можно, отжав галочку в соответствующих местах при запуске нового торрента.


Display posts:    

Current time is: 05-Jul 13:21

All times are UTC ± 0


You cannot post new topics in this forum
You cannot reply to topics in this forum
You cannot edit your posts in this forum
You cannot delete your posts in this forum
You cannot vote in polls in this forum
You cannot attach files in this forum
You cannot download files in this forum

!ATTENTION!
The site does not give electronic versions of products, and is engaged only in a collecting and cataloguing of the references sent and published at a forum by our readers. If you are the legal owner of any submitted material and do not wish that the reference to it was in our catalogue, contact us and we shall immediately remove her. Files for an exchange on tracker are given by users of a site, and the administration does not bear the responsibility for their maintenance. The request to not fill in the files protected by copyrights, and also files of the illegal maintenance!