Ивановский Торрент трекер
Яндекс.Погода
DL-List and Torrent activity
Size:  4.82 GB   |    Registered:  5 years 1 month   |    Completed:  0 times

Seeder not seen: Never

 
     
 
 
 

[Quote]
HUNTER

Я подарю тебе любовь
Страна: Россия
Студия: ВайТ Медиа
Жанр: мелодрама
Год выпуска: 2014
Продолжительность: 01:30:05
Перевод: Не требуется
Cубтитры: нет
Оригинальная аудиодорожка: русский
Режиссер: Игорь Кечаев
В ролях: Елена Дудина, Александр Пашков, Тамара Сёмина, Олеся Бойко, Глафира Козулина, Иван Бровин, Степан Бекетов, Виктор Выбриенко, Светлана Письмиченко, Екатерина Толубеева
Описание:
Борис призван на срочную службу в "горячую точку". Дома его ждет невеста Лариса, но вскоре приходит письмо, в котором сообщается, что он погиб. Бориса привозят хоронить на родину в цинковом гробу. Друг Бориса Николай, влюбленный в Ларису, начинает настойчиво ухаживать за ней и, наконец, делает предложение. Девушка принимает предложение, осознавая, что не любит Николая. Накануне их свадьбы неожиданно возвращается Борис. Их чувства друг к другу не остыли, но узнав, что возлюбленная собирается замуж, молодой человек снова исчезает…

Сэмпл: http://multi-up.com/1040864
Тип релиза: HDTV 1080i
Контейнер: MKV
Видео: AVC, 1920x1080, (16:9), 25 fps, 7.3 Mbps
Аудио: Русский, MP2, 48 kHz, 2 ch, 192 kbps

MediaInfo

General
Unique ID : 198148144123782183907660562148035758057 (0x9511F1C5762BC210806C67CB936987E9)
Complete name : C:\Я подарю тебе любовь_2014_HDTV 1080i_RU.mkv
Format : Matroska
Format version : Version 4 / Version 2
File size : 4.82 GiB
Duration : 1h 30mn
Overall bit rate : 7 659 Kbps
Encoded date : UTC 2015-03-29 08:02:50
Writing application : mkvmerge v7.8.0 ('River Man') 64bit built on Mar 27 2015 16:31:37
Writing library : libebml v1.3.1 + libmatroska v1.4.2
DURATION : 01:30:05.016000000
NUMBER_OF_FRAMES : 225209
NUMBER_OF_BYTES : 129720384
_STATISTICS_WRITING_APP : mkvmerge v7.8.0 ('River Man') 64bit built on Mar 27 2015 16:31:37
_STATISTICS_WRITING_DATE_UTC : 2015-03-29 08:02:50
_STATISTICS_TAGS : BPS DURATION NUMBER_OF_FRAMES NUMBER_OF_BYTES
Video
ID : 1
Format : AVC
Format/Info : Advanced Video Codec
Format profile : [email protected]
Format settings, CABAC : Yes
Format settings, ReFrames : 4 frames
Codec ID : V_MPEG4/ISO/AVC
Duration : 1h 30mn
Bit rate : 7 315 Kbps
Width : 1 920 pixels
Height : 1 080 pixels
Display aspect ratio : 16:9
Frame rate mode : Constant
Frame rate : 25.000 fps
Standard : Component
Color space : YUV
Chroma subsampling : 4:2:0
Bit depth : 8 bits
Scan type : Interlaced
Scan order : Top Field First
Bits/(Pixel*Frame) : 0.141
Stream size : 4.60 GiB (96%)
Default : Yes
Forced : No
Color primaries : BT.709
Transfer characteristics : BT.709
Matrix coefficients : BT.709
Color range : Limited
Audio
ID : 2
Format : MPEG Audio
Format version : Version 1
Format profile : Layer 2
Codec ID : A_MPEG/L2
Codec ID/Hint : MP2
Duration : 1h 30mn
Bit rate mode : Constant
Bit rate : 192 Kbps
Channel(s) : 2 channels
Sampling rate : 48.0 KHz
Compression mode : Lossy
Stream size : 124 MiB (3%)
Language : English
Default : Yes
Forced : No

Скриншоты

[iv-torrents.ru].t42602.torrent
Torrent: Registered [ 2015-03-31 03:28 ] · F02015D1057DB8A66385FBE3F3C56C2B6A340C74

Download .torrent

Download

25 KB

Status: checked
Completed: 0 times
Size: 4.82 GB
terms.php
Похожие темы


Quick Reply

Name:

               
       
     
Heads necessary to send messages to enable JavaScript
Display posts:    

Current time is: 27-May 22:14

All times are UTC ± 0


You can post new topics in this forum
You can reply to topics in this forum
You cannot edit your posts in this forum
You cannot delete your posts in this forum
You cannot vote in polls in this forum
You cannot attach files in this forum
You can download files in this forum

!ATTENTION!
The site does not give electronic versions of products, and is engaged only in a collecting and cataloguing of the references sent and published at a forum by our readers. If you are the legal owner of any submitted material and do not wish that the reference to it was in our catalogue, contact us and we shall immediately remove her. Files for an exchange on tracker are given by users of a site, and the administration does not bear the responsibility for their maintenance. The request to not fill in the files protected by copyrights, and also files of the illegal maintenance!