Ивановский Торрент трекер
Яндекс.Погода
DL-List and Torrent activity
None
 
     
 
 

[Quote]
HUNTER

Я люблю тебя, Филлип Моррис / I Love You Phillip Morris
Страна: Франция, США
Студия: Europa Corp.
Жанр: драма, мелодрама, комедия, криминал, биография
Год выпуска: 2008
Продолжительность: 01:33:40
Перевод: Профессиональный (дублированный)
Субтитры: нет
Оригинальная аудиодорожка: нет
Режиссер: Гленн Фикарра, Джон Рекуа / Glenn Ficarra, John Requa
В ролях: Джим Керри, Юэн МакГрегор, Лесли Манн, Родриго Санторо, Энтони Короне, Бреннан Браун, Майкл Манделл, Энни Голден, Мэрилуиз Бёрк, Дэвид Дженсен
Описание: Стивен Расселл — образцовый отец семейства — в результате дерзкой аферы оказывается в техасской тюрьме. Там он без памяти влюбляется в другого заключенного, Филлипа Морриса.
Дополнительные материалы: Интервью, Смотрите на DVD
Меню: есть, анимированное
Сэмпл
Тип релиза: DVD9
Контейнер: DVD-Video
Видео: PAL 16:9 (720x576(0.481)) MPEG Video, 25,000 кадр/сек, 4989 Кбит/сек
Аудио: Russian (Dolby AC-3, 6 ch) 448 Кбит/сек, 48.0 КГц
Аудио 2: Russian (DTS, 6 ch) 1536 Кбит/сек, 48.0 КГц
Аудио 3: Russian (Dolby AC-3, 2 ch) 192 Кбит/сек, 48.0 КГц, Доп. материалы

DVDInfo

Title: I_LOVE_YOU_PHILLIP_MORRIS
Disk size: 6.54 Gb ( 6 859 168,00 KBytes )
DVD Type: DVD-9
Enabled regions: 1,2,3,4,5,6
VTS_01:
Title Play Length: 00:00:07
Video: PAL 4:3 (720x576) VBR
Audio (0)
Subtitles (0)
VTS_02:
Title Play Length: 00:00:06
Video: PAL 16:9 (720x576) VBR,Auto Letterboxed
Audio (1):
Not specified (Dolby AC3, 2 ch)
Subtitles (0)
VTS_03:
Title Play Length: 01:33:40
Video: PAL 16:9 (720x576) VBR,Auto Letterboxed
Audio (2):
Russian (Dolby AC3, 6 ch)
Russian (DTS, 5 ch)
Subtitles (0)
VTS_04:
Title Play Length: 00:00:06
Video: PAL 4:3 (720x576) VBR
Audio (1):
Not specified (Dolby AC3, 2 ch)
Subtitles (0)
VTS_05:
Title Play Length: 00:01:22
Video: PAL 16:9 (720x576) VBR,Auto Letterboxed
Audio (1):
Not specified (Dolby AC3, 2 ch)
Subtitles (0)
VTS_06:
Title Play Length: 00:09:16
Video: PAL 4:3 (720x576) VBR
Audio (1):
Not specified (Dolby AC3, 2 ch)
Subtitles (0)
VTS_07:
Title Play Length: 00:01:53
Video: PAL 16:9 (720x576) VBR,Auto Letterboxed
Audio (1):
Not specified (Dolby AC3, 2 ch)
Subtitles (0)
VTS_08:
Title Play Length: 00:02:20
Video: PAL 16:9 (720x576) VBR,Auto Letterboxed
Audio (1):
Not specified (Dolby AC3, 2 ch)
Subtitles (0)
VTS_09:
Title Play Length: 00:01:56
Video: PAL 16:9 (720x576) VBR,Auto Letterboxed
Audio (1):
Not specified (Dolby AC3, 2 ch)
Subtitles (0)
VTS_10:
Title Play Length: 00:01:37
Video: PAL 16:9 (720x576) VBR,Auto Letterboxed
Audio (1):
Not specified (Dolby AC3, 2 ch)
Subtitles (0)
VTS_11:
Title Play Length: 00:01:59
Video: PAL 4:3 (720x576) VBR
Audio (1):
Not specified (Dolby AC3, 2 ch)
Subtitles (0)
VTS_12:
Title Play Length: 00:01:53
Video: PAL 4:3 (720x576) VBR
Audio (1):
Not specified (Dolby AC3, 2 ch)
Subtitles (0)
VTS_13:
Title Play Length: 00:02:15
Video: PAL 4:3 (720x576) VBR
Audio (1):
Not specified (Dolby AC3, 2 ch)
Subtitles (0)
VTS_14:
Title Play Length: 00:18:07
Video: PAL 16:9 (720x576) VBR,Auto Letterboxed
Audio (1):
Russian (Dolby AC3, 2 ch)
Subtitles (0)
* Menus Information *
VIDEO_TS Menu
Video:
PAL 4:3 (720x576) VBR
Audio (0)
English Language Unit :
Title Menu
VTS_01 Menu
Video:
PAL 4:3 (720x576) VBR
Audio (1):
Not specified (Dolby AC3, 2 ch)
English Language Unit :
Root Menu
VTS_02 Menu
Video:
PAL 16:9 (720x576) VBR
Auto Letterboxed
Audio (1):
Not specified (Dolby AC3, 2 ch)
English Language Unit :
Root Menu
VTS_03 Menu
Video:
PAL 4:3 (720x576) VBR
Audio (0)
English Language Unit :
Root Menu
VTS_04 Menu
Video:
PAL 4:3 (720x576) VBR
Audio (0)
English Language Unit :
Root Menu
VTS_05 Menu
Video:
PAL 4:3 (720x576) VBR
Audio (0)
English Language Unit :
Root Menu
VTS_06 Menu
Video:
PAL 4:3 (720x576) VBR
Audio (0)
English Language Unit :
Root Menu
VTS_07 Menu
Video:
PAL 4:3 (720x576) VBR
Audio (0)
English Language Unit :
Root Menu
VTS_08 Menu
Video:
PAL 4:3 (720x576) VBR
Audio (0)
English Language Unit :
Root Menu
VTS_09 Menu
Video:
PAL 4:3 (720x576) VBR
Audio (0)
English Language Unit :
Root Menu
VTS_10 Menu
Video:
PAL 4:3 (720x576) VBR
Audio (0)
English Language Unit :
Root Menu
VTS_11 Menu
Video:
PAL 4:3 (720x576) VBR
Audio (0)
English Language Unit :
Root Menu
VTS_12 Menu
Video:
PAL 4:3 (720x576) VBR
Audio (0)
English Language Unit :
Root Menu
VTS_13 Menu
Video:
PAL 4:3 (720x576) VBR
Audio (0)
English Language Unit :
Root Menu
VTS_14 Menu
Video:
PAL 4:3 (720x576) VBR
Audio (0)
English Language Unit :
Root Menu

MediaInfo

Общее
Полное имя : I_LOVE_YOU_PHILLIP_MORRIS\VIDEO_TS\VTS_03_1.VOB
Формат : MPEG-PS
Размер файла : 1024 Мбайт
Продолжительность : 20 м. 11 с.
Режим общего битрейта : Переменный
Общий поток : 7088 Кбит/сек
Видео
Идентификатор : 224 (0xE0)
Формат : MPEG Video
Версия формата : Version 2
Профиль формата : Main@Main
Настройки формата : CustomMatrix / BVOP
Параметр BVOP формата : Да
Параметр матрицы формата : Выборочная
Параметр GOP формата : Variable
Продолжительность : 20 м. 11 с.
Вид битрейта : Переменный
Битрейт : 4989 Кбит/сек
Максимальный битрейт : 8000 Кбит/сек
Ширина : 720 пикселей
Высота : 576 пикселей
Соотношение сторон : 16:9
Частота кадров : 25,000 кадров/сек
Стандарт вещания : PAL
Цветовое пространство : YUV
Субдискретизация насыщенности : 4:2:0
Битовая глубина : 8 бит
Тип развёртки : Прогрессивная
Метод сжатия : С потерями
Бит/(Пиксели*Кадры) : 0.481
Временной код первого кадра : 10:00:00:00
Оригинал временного кода : Group of pictures header
Размер потока : 721 Мбайт (70%)
Аудио #1
Идентификатор : 189 (0xBD)-128 (0x80)
Формат : AC-3
Формат/Информация : Audio Coding 3
Режим смешивания : DVD-Video
Продолжительность : 20 м. 11 с.
Вид битрейта : Постоянный
Битрейт : 448 Кбит/сек
Каналы : 6 каналов
Расположение каналов : Front: L C R, Side: L R, LFE
Частота : 48,0 КГц
Частота кадров : 31,250 кадров/сек (1536 SPF)
Битовая глубина : 16 бит
Метод сжатия : С потерями
Размер потока : 64,7 Мбайт (6%)
ServiceKind/String : Complete Main
Аудио #2
Идентификатор : 189 (0xBD)-137 (0x89)
Формат : DTS
Формат/Информация : Digital Theater Systems
Режим смешивания : DVD-Video
Продолжительность : 20 м. 11 с.
Вид битрейта : Постоянный
Битрейт : 1510 Кбит/сек
Каналы : 6 каналов
Расположение каналов : Front: L C R, Side: L R, LFE
Частота : 48,0 КГц
Частота кадров : 93,750 кадра/сек (512 SPF)
Битовая глубина : 24 бит
Метод сжатия : С потерями
Размер потока : 218 Мбайт (21%)

Скриншоты меню

Скриншоты

Скриншоты доп. материалов



Display posts:    

Current time is: 22-Jan 03:12

All times are UTC ± 0


You cannot post new topics in this forum
You cannot reply to topics in this forum
You cannot edit your posts in this forum
You cannot delete your posts in this forum
You cannot vote in polls in this forum
You cannot attach files in this forum
You cannot download files in this forum

!ATTENTION!
The site does not give electronic versions of products, and is engaged only in a collecting and cataloguing of the references sent and published at a forum by our readers. If you are the legal owner of any submitted material and do not wish that the reference to it was in our catalogue, contact us and we shall immediately remove her. Files for an exchange on tracker are given by users of a site, and the administration does not bear the responsibility for their maintenance. The request to not fill in the files protected by copyrights, and also files of the illegal maintenance!