Важное объявление!
У Нас Все раздачи мультитрекерные, при нуле пиров в релизах, можете смело вставать на закачку!
 
Автор Сообщение

HUNTER

Стаж:
4 года 4 месяца
Сообщений:
56719

Репутация: 101

[+] [-]
Вне форума [Профиль] [ЛС]

--XXXI Летние Олимпийские Игры / Бокс / Мужчины до 49, 69, 75 и 91 кг / Предварительные бои--
Спасибо за постер Ларка Крофт
Дата: 08.08.2016
Вид спорта: Бокс
Язык комментариев: Русский (Борис Скрипко - 1 часть и начало 2 части, Григорий Стангрит, Роман Гришин - 2 часть)-Описание: XXXI Летние Олимпийские Игры. Мужчины до 49, 69, 75 и 91 кг. Предварительные бои
Автор записи: LegendKiev-Качество: DVB
Формат: MKV
Видео кодек: AVC
Аудио кодек: MP2
Видео: 720@1048x576 (16:9), 25.000 fps, ~2400 kbps, ~0.24 bit/pixel
Аудио: 48 kHz, 2 ch, 192 kbps
-

Список боев

Part 1
Мужчины. До 91 кг. 1/8 финала
Евгений Тищенко (Россия) - Жуан Ногейра (Бразилия)
Хассен Шактами (Тунис) - Клементе Руссо (Италия)
Рустам Тулаганов (Узбекистан) - Хулио Сезар Кастильо (Эквадор)
Пол Омба Бионголо (Франция) - Абдулкадир Абдуллаев (Азербайджан)
Мужчины. До 49 кг. 1/8 финала
Хоанис Архилагос (Куба) - Галал Яфай (Великборитания)
Питер Мунгаи Варуи (Кения) - Лю Бинь (Китай)
Роджен Ладон (Филиппины) - Юберен Мартинес (Колумбия)
Мужчины. До 75 кг. 1/16 финала
Золтан Адам Харча (Венгрия) - Арсланбек Ачилов (Туркменистан)

Part 2

Мужчины. До 49 кг. 1/8 финала
Ган-Эрдене Ганхуя (Монголия) - Карлос Эдуардо Кипо (Эквадор) - 3 раунд
Нико Эрнандес (США) - Василий Егоров (Россия)
Мужчины. До 69 кг. 1/16 финала
Хуан Пабло Ромеро (Мексика) - Винченцо Манджакапре (Италия)
Джош Келли (Великобритания) - Валид Мохамед (Египет)
Мужчины. До 75 кг. 1/16 финала
Эндри Хосе Сааведра (Венесуэла) - Мария Хавьер Дельгадо (Эквадор)
Жалинбек Алимханулы (Казахстан) - Энтони Фаулер (Великобритания)
Мужчины. До 91 кг. 1/8 финала
Василий Левит (Казахстан) - Ю Фэнкай (Китай)
Шулаиб Булудинат (Алжир) - Кеннеди Сен-Пьерр (Маврикий)
Ямиль Альберто Перальта (Аргентина) - Давид Граф (Германия)
Лоуренс Околи (Великобритания) - Эрисланди Савон (Куба)

MediaInfo

Общее
Формат : Matroska
Версия формата : Version 4 / Version 2
Размер файла : 2,60 Гбайт
Продолжительность : 2 ч. 10 м.
Общий поток : 2851 Кбит/сек
Название фильма : XXXI Летние Олимпийские Игры / Бокс / Мужчины до 49, 69, 75 и 91 кг / Предварительные бои / 08.08.2016
Дата кодирования : UTC 2016-08-09 11:49:25
Программа кодирования : mkvmerge v6.5.0 ('Isn't she lovely') built on Oct 20 2013 12:50:05
Библиотека кодирования : libebml v1.3.0 + libmatroska v1.4.1
Видео
Идентификатор : 1
Формат : AVC
Формат/Информация : Advanced Video Codec
Профиль формата : High@L3
Параметр CABAC формата : Да
Параметр ReFrames формата : 4 кадра
Идентификатор кодека : V_MPEG4/ISO/AVC
Продолжительность : 2 ч. 10 м.
Битрейт : 2603 Кбит/сек
Ширина : 720 пикселей
Высота : 576 пикселей
Соотношение сторон : 16:9
Режим частоты кадров : Постоянный
Частота кадров : 25,000 кадров/сек
Стандарт вещания : PAL
Цветовое пространство : YUV
Субдискретизация насыщенности : 4:2:0
Битовая глубина : 8 бит
Тип развёртки : Чересстрочная
Метод сохранения типа развёртки : Раздельные поля
Порядок развёртки : Верхнее поле первое
Бит/(Пиксели*Кадры) : 0.251
Размер потока : 2,38 Гбайт (91%)
Default : Да
Forced : Нет
Цветовой диапазон : Limited
Основные цвета : BT.601 PAL
Характеристики трансфера : BT.470 System B, BT.470 System G
Коэффициенты матрицы : BT.601
Аудио
Идентификатор : 2
Формат : MPEG Audio
Версия формата : Version 1
Профиль формата : Layer 2
Идентификатор кодека : A_MPEG/L2
Идентификатор кодека/Подсказка : MP2
Продолжительность : 2 ч. 10 м.
Вид битрейта : Постоянный
Битрейт : 192 Кбит/сек
Каналы : 2 канала
Частота : 48,0 КГц
Метод сжатия : С потерями
Размер потока : 179 Мбайт (7%)
Заголовок : Матч! Боец (Борис Скрипко)
Язык : Russian
Default : Да
Forced : Нет

Продолжительность

02:10:41 + 02:30:06

Скриншоты


_________________
Показать сообщения:    

Текущее время: Сегодня 18:31

Часовой пояс: GMT



Вы не можете начинать темы
Вы не можете отвечать на сообщения
Вы не можете редактировать свои сообщения
Вы не можете удалять свои сообщения
Вы не можете голосовать в опросах
Вы не можете прикреплять файлы к сообщениям
Вы не можете скачивать файлы