Важное объявление!
У Нас Все раздачи мультитрекерные, при нуле пиров в релизах, можете смело вставать на закачку!
 
Автор Сообщение

HUNTER

Стаж:
4 года 4 месяца
Сообщений:
56734

Репутация: 101

[+] [-]
Вне форума [Профиль] [ЛС]

--XXXI Летние Олимпийские Игры / Бокс / Мужчины до 49, 60, 81 и 91 кг / Предварительные бои--
Спасибо за постер Ларка Крофт
Дата: 06.08.2016
Вид спорта: Бокс
Язык комментариев: Русский (Григорий Стангрит, Роман Гришин - 1 часть / Борис Скрипко - 2 часть)-Описание: XXXI Летние Олимпийские Игры. Мужчины до 49, 60, 81 и 91 кг. Предварительные бои
Автор записи: LegendKiev-Качество: DVB
Формат: MKV
Видео кодек: AVC
Аудио кодек: MP2
Видео: 720@1048x576 (16:9), 25.000 fps, ~2400 kbps, ~0.24 bit/pixel
Аудио: 48 kHz, 2 ch, 192 kbps
-

Список боев

Part 1
Мужчины. До 49 кг. 1/16 финала
Симплисе Фотсала (Камерун) - Галал Яфай (Великборитания)
Патрик Лоуренсо (Бразилия) - Юберен Мартинес (Колумбия)
Артур Оганесян (Армения) - Самуэль Кармона Эредия (Испания)
Мужчины. До 60 кг. 1/16 финала
Линдольфо Дельгадо (Мексика) - Кармине Томмазоне (Италия)
Луис Кабрера (Венесуэла) - Дайсуке Наримацу (Япония)
Берик Абдарахманов (Казахстан) - Карлос Бальдерас-младший (США)
Мужчины. До 81 кг. 1/16 финала
Хрвое Сеп (Хорватия) - Абдельрахман Салах Ораби Абдельгавват (Египет)
Мужчины. До 91 кг. 1/16 финала
Жуан Ногейра (Бразилия) - Джейсон Эрик Уотли (Австралия)

Part 2

Мужчины. До 60 кг. 1/16 финала
Анвар Юнусов (Таджикистан) - Шань Цзюнь (Китай)
Мужчины. До 81 кг. 1/16 финала
Мишел Боржес (Бразилия) - Хассан Н’Дам Н’Жикам (Камерун)
Эркин Адылбек Уулу (Киргизия) - Хуан Карлос Карильо (Колумбия)
Мужчины. До 91 кг. 1/16 финала
Лоуренс Околи (Великобритания) - Игор Павел Якубовски (Польша)
Мужчины. До 49 кг. 1/16 финала
Леандро Бланк (Аргентина) - Хоселито Веласкес (Мексика)
Матиас Тулёнгенели Хамуньела (Намибия) - Руфат Хусейнов (Азербайджан)
Нико Мигель Эрнандес (США) - Мануэль Капай (Италия)

MediaInfo

Общее
Формат : Matroska
Версия формата : Version 4 / Version 2
Размер файла : 2,50 Гбайт
Продолжительность : 2 ч. 17 м.
Общий поток : 2601 Кбит/сек
Название фильма : XXXI Летние Олимпийские Игры / Бокс / Мужчины до 49, 60, 81 и 91 кг / Предварительные бои / 06.08.2016
Дата кодирования : UTC 2016-08-07 01:25:39
Программа кодирования : mkvmerge v6.5.0 ('Isn't she lovely') built on Oct 20 2013 12:50:05
Библиотека кодирования : libebml v1.3.0 + libmatroska v1.4.1
Видео
Идентификатор : 1
Формат : AVC
Формат/Информация : Advanced Video Codec
Профиль формата : High@L3
Параметр CABAC формата : Да
Параметр ReFrames формата : 4 кадра
Идентификатор кодека : V_MPEG4/ISO/AVC
Продолжительность : 2 ч. 17 м.
Битрейт : 2358 Кбит/сек
Ширина : 720 пикселей
Высота : 576 пикселей
Соотношение сторон : 16:9
Режим частоты кадров : Постоянный
Частота кадров : 25,000 кадров/сек
Стандарт вещания : PAL
Цветовое пространство : YUV
Субдискретизация насыщенности : 4:2:0
Битовая глубина : 8 бит
Тип развёртки : Чересстрочная
Метод сохранения типа развёртки : Раздельные поля
Порядок развёртки : Верхнее поле первое
Бит/(Пиксели*Кадры) : 0.227
Размер потока : 2,27 Гбайт (91%)
Default : Да
Forced : Нет
Цветовой диапазон : Limited
Основные цвета : BT.601 PAL
Характеристики трансфера : BT.470 System B, BT.470 System G
Коэффициенты матрицы : BT.601
Аудио
Идентификатор : 2
Формат : MPEG Audio
Версия формата : Version 1
Профиль формата : Layer 2
Идентификатор кодека : A_MPEG/L2
Идентификатор кодека/Подсказка : MP2
Продолжительность : 2 ч. 17 м.
Вид битрейта : Постоянный
Битрейт : 192 Кбит/сек
Каналы : 2 канала
Частота : 48,0 КГц
Метод сжатия : С потерями
Размер потока : 189 Мбайт (7%)
Заголовок : Матч! Боец (Григорий Стангрит, Роман Гришин)
Язык : Russian
Default : Да
Forced : Нет

Продолжительность

02:17:49 + 01:50:00

Скриншоты



_________________
Показать сообщения:    

Текущее время: Сегодня 09:32

Часовой пояс: GMT



Вы не можете начинать темы
Вы не можете отвечать на сообщения
Вы не можете редактировать свои сообщения
Вы не можете удалять свои сообщения
Вы не можете голосовать в опросах
Вы не можете прикреплять файлы к сообщениям
Вы не можете скачивать файлы