Важное объявление!
У Нас Все раздачи мультитрекерные, при нуле пиров в релизах, можете смело вставать на закачку!
 
Автор Сообщение

HUNTER

Стаж:
4 года 10 месяцев
Сообщений:
65557

Репутация: 101

[+] [-]
Вне форума [Профиль] [ЛС]

--XXXI Летние Олимпийские Игры / Бокс / Мужчины до 60, 69 и 81 кг / Предварительные бои--
Спасибо за постер Ларка Крофт
Дата: 07.08.2016
Вид спорта: Бокс
Язык комментариев: Русский (Борис Скрипко)-Описание: XXXI Летние Олимпийские Игры. Мужчины до 60, 69 и 81 кг. Предварительные бои
Автор записи: LegendKiev-Качество: DVB
Формат: MKV
Видео кодек: AVC
Аудио кодек: MP2
Видео: 720@1048x576 (16:9), 25.000 fps, ~2550 kbps, ~0.24 bit/pixel
Аудио: 48 kHz, 2 ch, 192 kbps
-

Список боев

Part 1
Мужчины. До 60 кг. 1/16 финала
Эрико Лакруз (Нидерланды) - Чай Чу Ен (Китайский Тайбэй)
Тадиус Катуа (Папуа Новая Гвинея) - Адлан Абдурашидов (Россия)
Мужчины. До 69 кг. 1/16 финала
Райтон Ндуку Оквири (Кения) - Андрей Замковой (Россия)
Зохир Кедаш (Алжир) - Стивен Джеррард Донелли (Ирландия)
Эймантас Станионис (Литва) - Лю Вэй (Китай)
Мужчины. До 81 кг. 1/16 финала
Серж Михел (Германия) - Карлос Андрес Мина (Эквадор)
Кеннеди Катэндэ (Уганда) - Джошуа Буатси (Великобритания)
Пётр Хамуков (Россия) - Альберт Рамон Рамирес (Венесуэла)

Part 2

Мужчины. До 69 кг. 1/16 финала
Юба Сисокко Ндиайе (Испания) - Шахрам Гиясов (Узбекистан) - с 3 минуты 2 раунда (включение прямой трансляции)
Уинстон Хилл (Фиджи) - Владимир Маргарян (Армения)
Сулейман Диоп Сисокко (Франция) - Имре Балаж Бачкаи (Венгрия)
Саилом Арди (Таиланд) - Павел Кастрамин (Беларусь)
Мужчины. До 81 кг. 1/16 финала
Петер Мюлленберг (Нидерланды) - Эхсан Роузбахани (Иран)
Теймур Маммадов (Азербайджан) - Денис Солоненко (Украина)
Валентино Манфредония (Италия) - Михаил Долголевец (Беларусь)
Мужчины. До 60 кг. 1/16 финала
Софьян Умиха (Франция) - Теофима Андрес Лопес Ривера (Гондурас)
Амнат Руенпоенг (Таиланд) - Игнасио Перрин (Аргентина)
Дэвид Оливер Джойс (Ирландия) - Андрик Эллисоп (Сейшельские острова)

MediaInfo

Общее
Формат : Matroska
Версия формата : Version 4 / Version 2
Размер файла : 2,52 Гбайт
Продолжительность : 2 ч. 8 м.
Общий поток : 2806 Кбит/сек
Название фильма : XXXI Летние Олимпийские Игры / Бокс / Мужчины до 60, 69 и 81 кг / Предварительные бои / 07.08.2016
Дата кодирования : UTC 2016-08-08 06:10:55
Программа кодирования : mkvmerge v6.5.0 ('Isn't she lovely') built on Oct 20 2013 12:50:05
Библиотека кодирования : libebml v1.3.0 + libmatroska v1.4.1
Видео
Идентификатор : 1
Формат : AVC
Формат/Информация : Advanced Video Codec
Профиль формата : High@L3
Параметр CABAC формата : Да
Параметр ReFrames формата : 4 кадра
Идентификатор кодека : V_MPEG4/ISO/AVC
Продолжительность : 2 ч. 8 м.
Битрейт : 2558 Кбит/сек
Ширина : 720 пикселей
Высота : 576 пикселей
Соотношение сторон : 16:9
Режим частоты кадров : Постоянный
Частота кадров : 25,000 кадров/сек
Стандарт вещания : PAL
Цветовое пространство : YUV
Субдискретизация насыщенности : 4:2:0
Битовая глубина : 8 бит
Тип развёртки : Чересстрочная
Метод сохранения типа развёртки : Раздельные поля
Порядок развёртки : Верхнее поле первое
Бит/(Пиксели*Кадры) : 0.247
Размер потока : 2,30 Гбайт (91%)
Default : Да
Forced : Нет
Цветовой диапазон : Limited
Основные цвета : BT.601 PAL
Характеристики трансфера : BT.470 System B, BT.470 System G
Коэффициенты матрицы : BT.601
Аудио
Идентификатор : 2
Формат : MPEG Audio
Версия формата : Version 1
Профиль формата : Layer 2
Идентификатор кодека : A_MPEG/L2
Идентификатор кодека/Подсказка : MP2
Продолжительность : 2 ч. 8 м.
Вид битрейта : Постоянный
Битрейт : 192 Кбит/сек
Каналы : 2 канала
Частота : 48,0 КГц
Метод сжатия : С потерями
Размер потока : 176 Мбайт (7%)
Заголовок : Матч! Боец (Борис Скрипко)
Язык : Russian
Default : Да
Forced : Нет

Продолжительность

02:08:26 + 02:34:30

Скриншоты



_________________
Показать сообщения:    

Текущее время: Сегодня 16:59

Часовой пояс: GMT



Вы не можете начинать темы
Вы не можете отвечать на сообщения
Вы не можете редактировать свои сообщения
Вы не можете удалять свои сообщения
Вы не можете голосовать в опросах
Вы не можете прикреплять файлы к сообщениям
Вы не можете скачивать файлы