Важное объявление!
У Нас Все раздачи мультитрекерные, при нуле пиров в релизах, можете смело вставать на закачку!
 
Автор Сообщение

HUNTER

Стаж:
4 года 9 месяцев
Сообщений:
65057

Репутация: 101

[+] [-]
Вне форума [Профиль] [ЛС]

--XXXI Летние Олимпийские Игры / Бокс / Мужчины до 56, 64 (1/4 финала), 81 (1/2 финала) и свыше 91 кг (1/4 финала), до 60 кг (Финал) / Женщины до 51 кг (1/4 финала)--
Спасибо за постер Ларка Крофт
Дата: 16.08.2016
Вид спорта: Бокс
Язык комментариев: Русский (Борис Скрипко - 1 часть / Григорий Стангрит, Роман Гришин - 2 часть)-Описание: XXXI Летние Олимпийские Игры. Мужчины до 56, 60, 64, 81 и свыше 81 кг. Женщины до 51 кг.
Автор записи: LegendKiev-Качество: DVB
Формат: MKV
Видео кодек: AVC
Аудио кодек: MP2
Видео: 720@1048x576 (16:9), 25.000 fps, ~2600 kbps, ~0.24 bit/pixel
Аудио: 48 kHz, 2 ch, 192 kbps
-

Список боев

Part 1
Женщины. До 51 кг. 1/4 финала
Никола Адамс (Великобритания) - Татьяна Коб (Украина) - с 3 раунда (включение прямой трансляции)
Мэнди Буджолд (Канада) - Жэнь Цаньцань (Китай)
Мужчины. До 56 кг. 1/4 финала
Майкл Конлан (Ирландия) - Владимир Никитин (Россия)
Эрдэнэбат Цэндбаатар (Монголия) - Шакур Стивенсон (США)
Мужчины. До 64 кг. 1/4 финала
Виталий Дунайцев (Россия) - Ху Цяньсюнь (Китай) [дроп]
Фазлиддин Гаибназаров (Узбекистан) - Гэри Расселл (США)
Мужчины. До 81 кг. 1/2 финала
Хулио Сезар де ла Крус (Куба) - Матьё Бодерлик (Франция)
Мужчины. Свыше 91 кг. 1/4 финала
Тони Йока (Франция) - Хуссейн Яшаиш (Иордания)
Ленье Перо (Куба) - Филип Хргович (Хорватия)

Part 2

Женщины. До 51 кг. 1/4 финала
Пимвилай Лаопим (Таиланд) - Ингрит Лорена Валенсия Виктория (Колумбия)
Сара Урамун (Франция) - Жайна Шекербекова (Казахстан)
Мужчины. До 56 кг. 1/4 финала
Чжан Цзявэй (Китай) - Робейси Рамирес (Куба)
Альберт Эсекиль Мелиан (Аргентина) - Муроджон Ахмадалиев (Узбекистан)
Мужчины. До 64 кг. 1/4 финала
Артём Арутюнян (Германия) - Батухан Гозгеч (Турция)
Лоренсо Сотомайор (Азербайджан) - Ясниэль Толедо (Куба)
Мужчины. До 81 кг. 1/2 финала
Джошуа Буатси (Великобритания) - Адильбек Ниязымбетов (Казахстан) - с 3 раунда (включение прямой трансляции)
Мужчины. Свыше 91 кг. 1/4 финала
Джо Джойс (Великобритания) - Баходир Джалолов (Узбекистан)
Эфе Аджагба (Нигерия) - Иван Дычко (Казахстан)
Мужчины. До 60 кг. Финал
Робсон Консейсао (Бразилия) - Софьян Умиха (Франция)

MediaInfo

Общее
Формат : Matroska
Версия формата : Version 4 / Version 2
Размер файла : 2,80 Гбайт
Продолжительность : 2 ч. 17 м.
Общий поток : 2907 Кбит/сек
Название фильма : XXXI Летние Олимпийские Игры / Бокс / Мужчины до 56, 64 (1/4 финала), 81 (1/2 финала) и свыше 91 кг (1/4 финала) / Женщины до 51 кг (1/4 финала) / 16.08.2016
Дата кодирования : UTC 2016-08-16 17:10:03
Программа кодирования : mkvmerge v6.5.0 ('Isn't she lovely') built on Oct 20 2013 12:50:05
Библиотека кодирования : libebml v1.3.0 + libmatroska v1.4.1
Видео
Идентификатор : 1
Формат : AVC
Формат/Информация : Advanced Video Codec
Профиль формата : High@L3
Параметр CABAC формата : Да
Параметр ReFrames формата : 4 кадра
Идентификатор кодека : V_MPEG4/ISO/AVC
Продолжительность : 2 ч. 17 м.
Битрейт : 2658 Кбит/сек
Ширина : 720 пикселей
Высота : 576 пикселей
Соотношение сторон : 16:9
Режим частоты кадров : Постоянный
Частота кадров : 25,000 кадров/сек
Стандарт вещания : PAL
Цветовое пространство : YUV
Субдискретизация насыщенности : 4:2:0
Битовая глубина : 8 бит
Тип развёртки : Чересстрочная
Метод сохранения типа развёртки : Раздельные поля
Порядок развёртки : Нижнее поле первое
Бит/(Пиксели*Кадры) : 0.256
Размер потока : 2,56 Гбайт (91%)
Default : Да
Forced : Нет
Цветовой диапазон : Limited
Основные цвета : BT.601 PAL
Характеристики трансфера : BT.470 System B, BT.470 System G
Коэффициенты матрицы : BT.601
Аудио
Идентификатор : 2
Формат : MPEG Audio
Версия формата : Version 1
Профиль формата : Layer 2
Идентификатор кодека : A_MPEG/L2
Идентификатор кодека/Подсказка : MP2
Продолжительность : 2 ч. 17 м.
Вид битрейта : Постоянный
Битрейт : 192 Кбит/сек
Каналы : 2 канала
Частота : 48,0 КГц
Метод сжатия : С потерями
Размер потока : 189 Мбайт (7%)
Заголовок : Матч! Боец (Борис Скрипко)
Язык : Russian
Default : Да
Forced : Нет

Продолжительность

02:17:55 + 02:20:15

Скриншоты



_________________
Показать сообщения:    

Текущее время: Сегодня 03:53

Часовой пояс: GMT



Вы не можете начинать темы
Вы не можете отвечать на сообщения
Вы не можете редактировать свои сообщения
Вы не можете удалять свои сообщения
Вы не можете голосовать в опросах
Вы не можете прикреплять файлы к сообщениям
Вы не можете скачивать файлы