XXXI Летние Олимпийские Игры / Бокс / Мужчины до 56, 64 кг (1/16 финала) и 69, 81 кг (1/8 финала) / Предварительные бои / Матч! Боец [11.08.2016, Бокс, DVB, RU] :: Ивановский Торрент трекер
Важное объявление!
У Нас Все раздачи мультитрекерные, при нуле пиров в релизах, можете смело вставать на закачку!
Статистика раздачи
Размер:     |    Зарегистрирован:     |    Скачан:     |   
Нет
 
     
 
 
Автор Сообщение

HUNTER

Стаж:
4 года 11 месяцев
Сообщений:
66066

Репутация: 101

[+] [-]
Вне форума [Профиль] [ЛС]

--XXXI Летние Олимпийские Игры / Бокс / Мужчины до 56, 64 кг (1/16 финала) и 69, 81 кг (1/8 финала) / Предварительные бои--
Спасибо за постер Ларка Крофт
Дата: 11.08.2016
Вид спорта: Бокс
Язык комментариев: Русский (Григорий Стангрит, Роман Гришин - 1 часть / Борис Скрипко - 2 часть)-Описание: XXXI Летние Олимпийские Игры. Мужчины до 56, 64, 69 и 81 кг. Предварительные бои
Автор записи: LegendKiev-Качество: DVB
Формат: MKV
Видео кодек: AVC
Аудио кодек: MP2
Видео: 720@1048x576 (16:9), 25.000 fps, ~2500 kbps, ~0.24 bit/pixel
Аудио: 48 kHz, 2 ch, 192 kbps
-

Список боев

Part 1
Мужчины. До 69 кг. 1/8 финала
Тувшинбат Бьямба (Монголия) - Стивен Джеррард Донелли (Ирландия)
Эймантас Станионис (Литва) - Шахрам Гиясов (Узбекистан)
Владимир Маргарян (Армения) - Роньель Иглесиас (Куба)
Мужчины. До 81 кг. 1/8 финала
Эльшод Расулов (Узбекистан) - Джошуа Буатси (Великобритания)
Альберт Рамон Рамирес (Венесуэла) - Абдельхафид Беншабла (Алжир)
Мужчины. До 56 кг. 1/16 финала
Николай Буценко (Украина) - Мохамед Хамут (Марокко)
Шива Тхапа (Индия) - Робейси Рамирес (Куба)
Мужчины. До 64 кг. 1/16 финала
Обада Аль-Касбех (Иордания) - Артур Биярсланов (Канада)
Батухан Гозгеч (Турция) - Махаман Смайла (Камерун)

Part 2

Мужчины. До 56 кг. 1/16 финала
Альберт Эсекиль Мелиан (Аргентина) - Абдул Омар (Гана)
Билел Мхамди (Тунис) - Инкулулеко Сунтеле (Лесото)
Джавид Челебиев (Азербайджан) - Кайрат Ералиев (Казахстан)
Мужчины. До 64 кг. 1/16 финала
Лорензо Сотомайор (Азербайджан) - Владимир Матвийчук (Украина)
Джуниас Джонас (Намибия) - Хассан Амзиль (Франция)
Абылайхан Жусупов (Казахстан) - Пэт Маккормак (Великобритания)
Мужчины. До 69 кг. 1/8 финала
Парвиз Багиров (Азербайджан) - Сулейман Диоп Сисокко (Франция)
Саилом Арди (Таиланд) - Симеон Чамов (Болгария)
Габриэль Маэстре (Венесуэла) - Винченцо Манджакапре (Италия)
Джош Келли (Великобритания) - Данияр Елеусинов (Казахстан)
Мужчины. До 81 кг. 1/8 финала
Петер Мюлленберг (Нидерланды) - Теймур Маммадов (Азербайджан)
Михаил Долголевец (Беларусь) - Адильбек Ниязымбетов (Казахстан)

MediaInfo

Общее
Формат : Matroska
Версия формата : Version 4 / Version 2
Размер файла : 2,56 Гбайт
Продолжительность : 2 ч. 17 м.
Общий поток : 2655 Кбит/сек
Название фильма : XXXI Летние Олимпийские Игры / Бокс / Мужчины до 56, 64 кг (1/16 финала) и 69, 81 кг (1/8 финала) / Предварительные бои / 11.08.2016
Дата кодирования : UTC 2016-08-12 11:45:06
Программа кодирования : mkvmerge v6.5.0 ('Isn't she lovely') built on Oct 20 2013 12:50:05
Библиотека кодирования : libebml v1.3.0 + libmatroska v1.4.1
Видео
Идентификатор : 1
Формат : AVC
Формат/Информация : Advanced Video Codec
Профиль формата : High@L3
Параметр CABAC формата : Да
Параметр ReFrames формата : 4 кадра
Идентификатор кодека : V_MPEG4/ISO/AVC
Продолжительность : 2 ч. 17 м.
Битрейт : 2410 Кбит/сек
Ширина : 720 пикселей
Высота : 576 пикселей
Соотношение сторон : 16:9
Режим частоты кадров : Постоянный
Частота кадров : 25,000 кадров/сек
Стандарт вещания : PAL
Цветовое пространство : YUV
Субдискретизация насыщенности : 4:2:0
Битовая глубина : 8 бит
Тип развёртки : Чересстрочная
Метод сохранения типа развёртки : Раздельные поля
Порядок развёртки : Верхнее поле первое
Бит/(Пиксели*Кадры) : 0.232
Размер потока : 2,32 Гбайт (91%)
Default : Да
Forced : Нет
Цветовой диапазон : Limited
Основные цвета : BT.601 PAL
Характеристики трансфера : BT.470 System B, BT.470 System G
Коэффициенты матрицы : BT.601
Аудио
Идентификатор : 2
Формат : MPEG Audio
Версия формата : Version 1
Профиль формата : Layer 2
Идентификатор кодека : A_MPEG/L2
Идентификатор кодека/Подсказка : MP2
Продолжительность : 2 ч. 17 м.
Вид битрейта : Постоянный
Битрейт : 192 Кбит/сек
Каналы : 2 канала
Частота : 48,0 КГц
Метод сжатия : С потерями
Размер потока : 189 Мбайт (7%)
Заголовок : Матч! Боец (Григорий Стангрит, Роман Гришин)
Язык : Russian
Default : Да
Forced : Нет

Продолжительность

02:17:57 + 03:04:56

Скриншоты


_________________
Показать сообщения:    

Текущее время: Сегодня 22:37

Часовой пояс: GMT



Вы не можете начинать темы
Вы не можете отвечать на сообщения
Вы не можете редактировать свои сообщения
Вы не можете удалять свои сообщения
Вы не можете голосовать в опросах
Вы не можете прикреплять файлы к сообщениям
Вы не можете скачивать файлы