Важное объявление!
У Нас Все раздачи мультитрекерные, при нуле пиров в релизах, можете смело вставать на закачку!
Статистика раздачи
Размер:     |    Зарегистрирован:     |    Скачан:     |   
Нет
 
     
 
 
Автор Сообщение

HUNTER

Стаж:
5 лет
Сообщений:
67921

Репутация: 101

[+] [-]
Вне форума [Профиль] [ЛС]

--XXXI Летние Олимпийские Игры / Бокс / Мужчины до 52, 64 и свыше 91 кг (Финал) / Женщины до 75 (Финал)--
Спасибо за постер Ларка Крофт
Дата: 21.08.2016
Вид спорта: Бокс
Язык комментариев: Русский (Борис Скрипко, Евгений Судаков)-Описание: XXXI Летние Олимпийские Игры. Мужчины до 52, 64, свыше 91 кг. Женщины до 75 кг.
Автор записи: LegendKiev-Качество: DVB
Формат: MKV
Видео кодек: AVC
Аудио кодек: MP2
Видео: 720@1048x576 (16:9), 25.000 fps, ~2400 kbps, ~0.23 bit/pixel
Аудио: 48 kHz, 2 ch, 192 kbps
-

Список боев

Женщины. До 75 кг. Финал
Кларесса Шилдс (США) - Наухка Фонтейн (Нидерланды)
Мужчины. До 52 кг. Финал
Шахобидин Зоиров (Узбекистан) - Михаил Алоян (Россия)
Мужчины. До 64 кг. Финал
Фазлиддин Гаибназаров (Узбекистан) - Лоренсо Сотомайор (Азербайджан)
Мужчины. Свыше 91 кг. Финал
Тони Йока (Франция) - Джо Джойс (Великобритания)

MediaInfo

Общее
Формат : Matroska
Версия формата : Version 4 / Version 2
Размер файла : 1,39 Гбайт
Продолжительность : 1 ч. 14 м.
Общий поток : 2685 Кбит/сек
Название фильма : XXXI Летние Олимпийские Игры / Бокс / Мужчины до 52, 64 и свыше 91 кг (Финал) / Женщины до 75 (Финал) / 21.08.2016
Дата кодирования : UTC 2016-08-22 03:25:45
Программа кодирования : mkvmerge v6.5.0 ('Isn't she lovely') built on Oct 20 2013 12:50:05
Библиотека кодирования : libebml v1.3.0 + libmatroska v1.4.1
Видео
Идентификатор : 1
Формат : AVC
Формат/Информация : Advanced Video Codec
Профиль формата : High@L3
Параметр CABAC формата : Да
Параметр ReFrames формата : 4 кадра
Идентификатор кодека : V_MPEG4/ISO/AVC
Продолжительность : 1 ч. 14 м.
Битрейт : 2439 Кбит/сек
Ширина : 720 пикселей
Высота : 576 пикселей
Соотношение сторон : 16:9
Режим частоты кадров : Постоянный
Частота кадров : 25,000 кадров/сек
Стандарт вещания : PAL
Цветовое пространство : YUV
Субдискретизация насыщенности : 4:2:0
Битовая глубина : 8 бит
Тип развёртки : Чересстрочная
Метод сохранения типа развёртки : Раздельные поля
Порядок развёртки : Верхнее поле первое
Бит/(Пиксели*Кадры) : 0.235
Размер потока : 1,27 Гбайт (91%)
Default : Да
Forced : Нет
Цветовой диапазон : Limited
Основные цвета : BT.601 PAL
Характеристики трансфера : BT.470 System B, BT.470 System G
Коэффициенты матрицы : BT.601
Аудио
Идентификатор : 2
Формат : MPEG Audio
Версия формата : Version 1
Профиль формата : Layer 2
Идентификатор кодека : A_MPEG/L2
Идентификатор кодека/Подсказка : MP2
Продолжительность : 1 ч. 14 м.
Вид битрейта : Постоянный
Битрейт : 192 Кбит/сек
Каналы : 2 канала
Частота : 48,0 КГц
Метод сжатия : С потерями
Размер потока : 102 Мбайт (7%)
Заголовок : Матч! Боец (Борис Скрипко, Евгений Судаков)
Язык : Russian
Default : Да
Forced : Нет

Продолжительность

01:14:19

Скриншоты


_________________
Показать сообщения:    

Текущее время: Сегодня 18:55

Часовой пояс: GMT



Вы не можете начинать темы
Вы не можете отвечать на сообщения
Вы не можете редактировать свои сообщения
Вы не можете удалять свои сообщения
Вы не можете голосовать в опросах
Вы не можете прикреплять файлы к сообщениям
Вы не можете скачивать файлы