Ивановский Торрент трекер
Яндекс.Погода
 

[Цитировать]
HUNTER

--XXXI Летние Олимпийские Игры / Бокс / Мужчины до 52 (1/8 финала), 75 (1/4 финала), 69 (1/2 финала), 91 кг (Финал) / Женщины до 60 кг (1/4 финала)--
Спасибо за постер Ларка Крофт
Дата: 15.08.2016
Вид спорта: Бокс
Язык комментариев: Русский (Григорий Стангрит, Роман Гришин - 1 часть / Борис Скрипко, Евгений Судаков - 2 часть)-Описание: XXXI Летние Олимпийские Игры. Мужчины до 52, 69, 75, 91 кг. Женщины до 60 кг.
Присутствует награждение после финала мужчин до 91 кг.
Автор записи: LegendKiev-Качество: DVB
Формат: MKV
Видео кодек: AVC
Аудио кодек: MP2
Видео: 720@1048x576 (16:9), 25.000 fps, ~2500 kbps, ~0.24 bit/pixel
Аудио: 48 kHz, 2 ch, 192 kbps
-

Список боев

Part 1
Женщины. До 60 кг. 1/4 финала
Кэти Тэйлор (Ирландия) - Мира Потконен (Финляндия)
Инь Цзюньхуа (Китай) - Яна Алексеева (Азербайджан)
Мужчины. До 52 кг. 1/8 финала
Эльвин Мамишзаде (Азербайджан) - Олжас Саттыбаев (Казахстан)
Шахобидин Заиров (Узбекистан) - Антонио Варгас (США)
Мухаммад Али (Великобритания) - Йоэль Финоль (Венесуэла)
Даниэль Асенов (Болгария) - Мохаммед Флисси (Алжир)
Мужчины. До 69 кг. 1/2 финала
Мохамед Рабии (Марокко) - Шахрам Гиясов (Узбекистан)
Мужчины. До 75 кг. 1/4 финала
Арлен Лопес (Куба) - Кристиан Мбилли (Франция)
Жалинбек Алимханулы (Казахстан) - Камран Шахсуварлы (Азербайджан) [были косяки при записи]

Part 2

Мужчины. До 75 кг. 1/4 финала
Мисаэль Родригес (Мексика) - Хосам Хуссейн Бакр Абдин (Египет)
Кришан Викас (Индия) - Бектемир Меликузиев (Узбекистан)
Мужчины. До 91 кг. Финал
Евгений Тищенко (Россия) - Василий Левит (Казахстан)
Женщины. До 60 кг. 1/4 финала
Анастасия Белякова (Россия) - Микаэла Майер (США)
Ирма Теста (Италия) - Эстель Моссели (Франция)
Мужчины. До 52 кг. 1/8 финала
Михаил Алоян (Россия) - Эли Конки (Франция)
Элиас Эмигдио (Мексика) - Сейбер Авила (Колумбия)
Ашраф Харруби (Марокко) - Йосвани Вейтия (Куба)
Мужчины. До 69 кг. 1/2 финала
Сулейман Диоп Сисокко (Франция) - Данияр Елеусинов (Казахстан)

MediaInfo

Общее
Формат : Matroska
Версия формата : Version 4 / Version 2
Размер файла : 3,23 Гбайт
Продолжительность : 2 ч. 55 м.
Общий поток : 2635 Кбит/сек
Название фильма : XXXI Летние Олимпийские Игры / Бокс / Мужчины до 52 (1/8 финала), 75 (1/4 финала), 69 (1/2 финала), 91 кг (Финал) / Женщины до 60 кг (1/4 финала) / 15.08.2016
Дата кодирования : UTC 2016-08-16 17:52:58
Программа кодирования : mkvmerge v6.5.0 ('Isn't she lovely') built on Oct 20 2013 12:50:05
Библиотека кодирования : libebml v1.3.0 + libmatroska v1.4.1
Видео
Идентификатор : 1
Формат : AVC
Формат/Информация : Advanced Video Codec
Профиль формата : High@L3
Параметр CABAC формата : Да
Параметр ReFrames формата : 4 кадра
Идентификатор кодека : V_MPEG4/ISO/AVC
Продолжительность : 2 ч. 55 м.
Битрейт : 2391 Кбит/сек
Ширина : 720 пикселей
Высота : 576 пикселей
Соотношение сторон : 16:9
Режим частоты кадров : Постоянный
Частота кадров : 25,000 кадров/сек
Стандарт вещания : PAL
Цветовое пространство : YUV
Субдискретизация насыщенности : 4:2:0
Битовая глубина : 8 бит
Тип развёртки : Чересстрочная
Метод сохранения типа развёртки : Раздельные поля
Порядок развёртки : Нижнее поле первое
Бит/(Пиксели*Кадры) : 0.231
Размер потока : 2,93 Гбайт (91%)
Default : Да
Forced : Нет
Цветовой диапазон : Limited
Основные цвета : BT.601 PAL
Характеристики трансфера : BT.470 System B, BT.470 System G
Коэффициенты матрицы : BT.601
Аудио
Идентификатор : 2
Формат : MPEG Audio
Версия формата : Version 1
Профиль формата : Layer 2
Идентификатор кодека : A_MPEG/L2
Идентификатор кодека/Подсказка : MP2
Продолжительность : 2 ч. 55 м.
Вид битрейта : Постоянный
Битрейт : 192 Кбит/сек
Каналы : 2 канала
Частота : 48,0 КГц
Метод сжатия : С потерями
Размер потока : 241 Мбайт (7%)
Заголовок : Матч! Боец (Борис Скрипко, Евгений Судаков)
Язык : Russian
Default : Да
Forced : Нет

Продолжительность

02:17:50 + 02:55:41

Скриншоты



Показать сообщения:    

Текущее время: 17-Дек 12:12

Часовой пояс: UTC ± 0


Вы не можете начинать темы
Вы не можете отвечать на сообщения
Вы не можете редактировать свои сообщения
Вы не можете удалять свои сообщения
Вы не можете голосовать в опросах
Вы не можете прикреплять файлы к сообщениям
Вы не можете скачивать файлы

!ВНИМАНИЕ!
Сайт не предоставляет электронные версии произведений, а занимается лишь коллекционированием и каталогизацией ссылок, присылаемых и публикуемых на форуме нашими читателями. Если вы являетесь правообладателем какого-либо представленного материала и не желаете, чтобы ссылка на него находилась в нашем каталоге, свяжитесь с нами, и мы незамедлительно удалим ее. Файлы для обмена на трекере предоставлены пользователями сайта, и администрация не несет ответственности за их содержание. Просьба не заливать файлы, защищенные авторскими правами, а также файлы нелегального содержания!