Важное объявление!
У Нас Все раздачи мультитрекерные, при нуле пиров в релизах, можете смело вставать на закачку!
 
Автор Сообщение

HUNTER

Стаж:
4 года 8 месяцев
Сообщений:
62034

Репутация: 101

[+] [-]
Вне форума [Профиль] [ЛС]

--XXXI Летние Олимпийские Игры / Бокс / Мужчины до 52 (1/4 финала), 69 кг (Финал) / Женщины до 60 (1/2 финала), 75 кг (1/4 финала)--
Спасибо за постер Ларка Крофт
Дата: 17.08.2016
Вид спорта: Бокс
Язык комментариев: Русский (Борис Скрипко)-Описание: XXXI Летние Олимпийские Игры. Мужчины до 52, 69 кг. Женщины до 60, 75 кг.
Автор записи: LegendKiev-Качество: DVB
Формат: MKV
Видео кодек: AVC
Аудио кодек: MP2
Видео: 720@1048x576 (16:9), 25.000 fps, ~2500 kbps, ~0.24 bit/pixel
Аудио: 48 kHz, 2 ch, 192 kbps
-

Список боев

Женщины. До 60 кг. 1/2 финала
Мира Потконен (Финляндия) - Инь Цзюньхуа (Китай)
Анастасия Белякова (Россия) - Эстель Моссели (Франция)
Женщины. До 75 кг. 1/4 финала
Кларесса Шилдс (США) - Ярослава Якушина (Россия)
Дарига Шакимова (Казахстан) - Хаджа Эль-Марди (Марокко)
Ли Цянь (Китай) - Андрея Бандейра (Бразилия)
Саванна Маршалл (Великобритания) - Наухка Фонтейн (Нидерланды) [дроп]
Мужчины. До 52 кг. 1/4 финала
Эльвин Мамишзаде (Азербайджан) - Шахобидин Заиров (Узбекистан) [дроп]
Йоэль Финоль (Венесуэла) - Мохаммед Флисси (Алжир)
Михаил Алоян (Россия) - Сейбер Авила (Колумбия)
Нарек Абгарян (Армения) - Йосвани Вейтия (Куба)
Мужчины. До 69 кг. Финал
Шахрам Гиясов (Узбекистан) - Данияр Елеусинов (Казахстан)

MediaInfo

Общее
Формат : Matroska
Версия формата : Version 4 / Version 2
Размер файла : 3,44 Гбайт
Продолжительность : 3 ч. 0 м.
Общий поток : 2730 Кбит/сек
Название фильма : XXXI Летние Олимпийские Игры / Бокс / Мужчины до 52 (1/4 финала), 69 кг (Финал) / Женщины до 60 (1/2 финала), 75 кг (1/4 финала) / 17.08.2016
Дата кодирования : UTC 2016-08-17 21:40:49
Программа кодирования : mkvmerge v6.5.0 ('Isn't she lovely') built on Oct 20 2013 12:50:05
Библиотека кодирования : libebml v1.3.0 + libmatroska v1.4.1
Видео
Идентификатор : 1
Формат : AVC
Формат/Информация : Advanced Video Codec
Профиль формата : High@L3
Параметр CABAC формата : Да
Параметр ReFrames формата : 4 кадра
Идентификатор кодека : V_MPEG4/ISO/AVC
Продолжительность : 3 ч. 0 м.
Битрейт : 2483 Кбит/сек
Ширина : 720 пикселей
Высота : 576 пикселей
Соотношение сторон : 16:9
Режим частоты кадров : Постоянный
Частота кадров : 25,000 кадров/сек
Стандарт вещания : PAL
Цветовое пространство : YUV
Субдискретизация насыщенности : 4:2:0
Битовая глубина : 8 бит
Тип развёртки : Чересстрочная
Метод сохранения типа развёртки : Раздельные поля
Порядок развёртки : Верхнее поле первое
Бит/(Пиксели*Кадры) : 0.240
Размер потока : 3,13 Гбайт (91%)
Default : Да
Forced : Нет
Цветовой диапазон : Limited
Основные цвета : BT.601 PAL
Характеристики трансфера : BT.470 System B, BT.470 System G
Коэффициенты матрицы : BT.601
Аудио
Идентификатор : 2
Формат : MPEG Audio
Версия формата : Version 1
Профиль формата : Layer 2
Идентификатор кодека : A_MPEG/L2
Идентификатор кодека/Подсказка : MP2
Продолжительность : 3 ч. 0 м.
Вид битрейта : Постоянный
Битрейт : 192 Кбит/сек
Каналы : 2 канала
Частота : 48,0 КГц
Метод сжатия : С потерями
Размер потока : 248 Мбайт (7%)
Заголовок : Матч! Боец (Борис Скрипко)
Язык : Russian
Default : Да
Forced : Нет

Продолжительность

03:00:20

Скриншоты



_________________
Показать сообщения:    

Текущее время: Сегодня 04:53

Часовой пояс: GMT



Вы не можете начинать темы
Вы не можете отвечать на сообщения
Вы не можете редактировать свои сообщения
Вы не можете удалять свои сообщения
Вы не можете голосовать в опросах
Вы не можете прикреплять файлы к сообщениям
Вы не можете скачивать файлы
Наши партнеры: интернет магазин Ивановского трикотажа textilla.ru