Важное объявление!
У Нас Все раздачи мультитрекерные, при нуле пиров в релизах, можете смело вставать на закачку!
 
Автор Сообщение

HUNTER

Стаж:
4 года 10 месяцев
Сообщений:
65485

Репутация: 101

[+] [-]
Вне форума [Профиль] [ЛС]

--XXXI Летние Олимпийские Игры / Бокс / Мужчины до 52 (1/16 финала), 69 (1/4 финала), 91 кг (1/2 финала) и свыше 91 кг (1/8 финала)--
Спасибо за постер Ларка Крофт
Дата: 13.08.2016
Вид спорта: Бокс
Язык комментариев: Русский (Борис Скрипко - 1 часть / Григорий Стангрит, Роман Гришин - 2 часть)-Описание: XXXI Летние Олимпийские Игры. Мужчины до 52, 69, 91 и свыше 91 кг.
Автор записи: LegendKiev-Качество: DVB
Формат: MKV
Видео кодек: AVC
Аудио кодек: MP2
Видео: 720@1048x576 (16:9), 25.000 fps, ~2500 kbps, ~0.24 bit/pixel
Аудио: 48 kHz, 2 ch, 192 kbps
-

Список боев

Part 1
Мужчины. До 52 кг. 1/16 финала
Хавер Хесус Синтрон (Пуэрто-Рико) - Олжас Саттыбаев (Казахстан)
Шахобидин Заиров (Узбекистан) - Брендан Ирвайн (Ирландия)
Жулиао Нето (Бразилия) - Антонио Варгас (США)
Йоэль Финоль (Венесуэла) - Леонель де лос Сантос (Доминиканская Республика)
Фернандо Мартинес (Аргентина) - Даниэль Асенов (Болгария)
Мужчины. До 69 кг. 1/4 финала
Мохамед Рабии (Марокко) - Стивен Джеррард Донелли (Ирландия)
Шахрам Гиясов (Узбекистан) - Роньель Иглесиас (Куба)
Мужчины. До 91 кг. 1/2 финала
Евгений Тищенко (Россия) - Рустам Тулаганов (Узбекистан)
Мужчины. Свыше 91 кг. 1/8 финала
Тони Йока (Франция) - Лорен Клэйтон (Американские Виргинские Острова)
Хуссейн Яшаиш (Иордания) - Михай Нистор (Румыния)
Ленье Перо (Куба) - Гвидо Вианелло (Италия)
Али Эрен Демирезен (Турция) - Филип Хргович (Хорватия)

Part 2

Мужчины. До 52 кг. 1/16 финала
Эли Конки (Франция) - Хамза Туба (Германия)
Элиас Эмигдио (Мексика) - Энх-Амар Хархуугийн (Монголия)
Ху Цзянгуань (Китай) - Селчук Экер (Турция)
Рональд Серуго (Уганда) - Нарек Абгарян (Армения)
Ашраф Харруби (Марокко) - Мороке Мокхото (Лесото)
Мужчины. До 69 кг. 1/4 финала
Сулейман Диоп Сисокко (Франция) - Саилом Арди (Таиланд)
Габриэль Маэстре (Венесуэла) - Данияр Елеусинов (Казахстан)
Мужчины. До 91 кг. 1/2 финала
Василий Левит (Казахстан) - Эрисланди Савон (Куба)
Мужчины. Свыше 91 кг. 1/8 финала
Джо Джойс (Великобритания) - Давилсон Мораиш (Кабо-Верде)
Эдгар Рамон Муньос (Венесуэла) - Баходир Джалолов (Узбекистан)
Эфе Аджагба (Нигерия) - Найджел Пол (Тринидад и Тобаго)
Магомедрасул Маджидов (Азербайджан) - Иван Дычко (Казахстан)

MediaInfo

Общее
Формат : Matroska
Версия формата : Version 4 / Version 2
Размер файла : 4,00 Гбайт
Продолжительность : 3 ч. 18 м.
Общий поток : 2879 Кбит/сек
Название фильма : XXXI Летние Олимпийские Игры / Бокс / Мужчины до 52 (1/16 финала), 69 (1/4 финала), 91 кг (1/2 финала) и свыше 91 кг (1/8 финала) / 13.08.2016
Дата кодирования : UTC 2016-08-14 11:33:22
Программа кодирования : mkvmerge v6.5.0 ('Isn't she lovely') built on Oct 20 2013 12:50:05
Библиотека кодирования : libebml v1.3.0 + libmatroska v1.4.1
Видео
Идентификатор : 1
Формат : AVC
Формат/Информация : Advanced Video Codec
Профиль формата : High@L3
Параметр CABAC формата : Да
Параметр ReFrames формата : 4 кадра
Идентификатор кодека : V_MPEG4/ISO/AVC
Продолжительность : 3 ч. 18 м.
Битрейт : 2629 Кбит/сек
Ширина : 720 пикселей
Высота : 576 пикселей
Соотношение сторон : 16:9
Режим частоты кадров : Постоянный
Частота кадров : 25,000 кадров/сек
Стандарт вещания : PAL
Цветовое пространство : YUV
Субдискретизация насыщенности : 4:2:0
Битовая глубина : 8 бит
Тип развёртки : Чересстрочная
Метод сохранения типа развёртки : Раздельные поля
Порядок развёртки : Нижнее поле первое
Бит/(Пиксели*Кадры) : 0.254
Размер потока : 3,65 Гбайт (91%)
Default : Да
Forced : Нет
Цветовой диапазон : Limited
Основные цвета : BT.601 PAL
Характеристики трансфера : BT.470 System B, BT.470 System G
Коэффициенты матрицы : BT.601
Аудио
Идентификатор : 2
Формат : MPEG Audio
Версия формата : Version 1
Профиль формата : Layer 2
Идентификатор кодека : A_MPEG/L2
Идентификатор кодека/Подсказка : MP2
Продолжительность : 3 ч. 18 м.
Вид битрейта : Постоянный
Битрейт : 192 Кбит/сек
Каналы : 2 канала
Частота : 48,0 КГц
Метод сжатия : С потерями
Размер потока : 273 Мбайт (7%)
Заголовок : Матч! Боец (Борис Скрипко)
Язык : Russian
Default : Да
Forced : Нет

Продолжительность

03:18:52 + 02:57:26

Скриншоты



_________________
Показать сообщения:    

Текущее время: Сегодня 00:01

Часовой пояс: GMT



Вы не можете начинать темы
Вы не можете отвечать на сообщения
Вы не можете редактировать свои сообщения
Вы не можете удалять свои сообщения
Вы не можете голосовать в опросах
Вы не можете прикреплять файлы к сообщениям
Вы не можете скачивать файлы