Важное объявление!
У Нас Все раздачи мультитрекерные, при нуле пиров в релизах, можете смело вставать на закачку!
 
Автор Сообщение

HUNTER

Стаж:
4 года 7 месяцев
Сообщений:
61449

Репутация: 101

[+] [-]
Вне форума [Профиль] [ЛС]

XXXI Летние Олимпийские Игры / Бокс / Мужчины до 52 кг (1/4 финала) / Женщины до 60 (1/2 финала), 75 кг (1/4 финала) / Первый канал HD
Вид спорта: Бокс
Дата/Год выпуска: 17.08.2016
Язык комментариев: Русский
Автор рипа/записи: djfeel1993
Качество: HDTV 1080i (запись с IPTV)
Формат: TS
Видео: H.264, 1920x1080 (16:9), 25 fps, 8754 kbps
Аудио: AC3, 48 kHz, 6 ch, 384 kbps
Аудио 2: MP2, 48 kHz, 2 ch, 224 kbps

MediaInfo

General
ID : 1 (0x1)
Complete name : C:\Users\Home\Desktop\Бокс Мужчины Женщины 1-4 и 1-2 финала.ts
Format : MPEG-TS
File size : 2.57 GiB
Duration : 37mn 17s
Overall bit rate mode : Variable
Overall bit rate : 9 855 Kbps
Video
ID : 68 (0x44)
Menu ID : 1 (0x1)
Format : AVC
Format/Info : Advanced Video Codec
Format profile : High@L4.0
Format settings, CABAC : Yes
Format settings, ReFrames : 3 frames
Codec ID : 27
Duration : 37mn 17s
Bit rate : 8 754 Kbps
Width : 1 920 pixels
Height : 1 080 pixels
Display aspect ratio : 16:9
Frame rate : 25.000 fps
Standard : Component
Color space : YUV
Chroma subsampling : 4:2:0
Bit depth : 8 bits
Scan type : Interlaced
Bits/(Pixel*Frame) : 0.169
Stream size : 2.28 GiB (89%)
Color primaries : BT.709
Transfer characteristics : BT.709
Matrix coefficients : BT.709
Audio #1
ID : 69 (0x45)
Menu ID : 1 (0x1)
Format : AC-3
Format/Info : Audio Coding 3
Mode extension : CM (complete main)
Format settings, Endianness : Big
Codec ID : 129
Duration : 37mn 17s
Bit rate mode : Constant
Bit rate : 384 Kbps
Channel count : 6 channels
Channel positions : Front: L C R, Side: L R, LFE
Sampling rate : 48.0 KHz
Bit depth : 16 bits
Compression mode : Lossy
Stream size : 102 MiB (4%)
Language : Russian
Audio #2
ID : 70 (0x46)
Menu ID : 1 (0x1)
Format : MPEG Audio
Format version : Version 1
Format profile : Layer 2
Codec ID : 3
Duration : 37mn 17s
Bit rate mode : Constant
Bit rate : 224 Kbps
Channel count : 2 channels
Sampling rate : 48.0 KHz
Compression mode : Lossy
Stream size : 59.7 MiB (2%)
Language : Russian

Продолжительность

00:37:17

Список боев

Миша Алоян (Россия) - Сейбера Авилу (Колумбия)
Анастасия Белякова (Россия) - Эстель Мосли (Франция)
Ярослава Якушина (Россия) - Клариссе Шильдс (США)

Скриншоты


_________________
Показать сообщения:    

Текущее время: Сегодня 21:15

Часовой пояс: GMT



Вы не можете начинать темы
Вы не можете отвечать на сообщения
Вы не можете редактировать свои сообщения
Вы не можете удалять свои сообщения
Вы не можете голосовать в опросах
Вы не можете прикреплять файлы к сообщениям
Вы не можете скачивать файлы
Наши партнеры: интернет магазин Ивановского трикотажа textilla.ru