Ивановский Торрент трекер
Яндекс.Погода
 

[Цитировать]
HUNTER

--XXXI Летние Олимпийские Игры / Бокс / Мужчины до 49, 91 (1/4 финала), 56, 64 (1/16 финала), 81 кг (1/8 финала)--
Спасибо за постер Ларка Крофт
Дата: 10.08.2016
Вид спорта: Бокс
Язык комментариев: Русский (Борис Скрипко - 1 часть, Григорий Стангрит, Роман Гришин - 2 часть)-Описание: XXXI Летние Олимпийские Игры. Мужчины до 49, 56, 64, 81 и 91 кг.
Автор записи: LegendKiev-Качество: DVB
Формат: MKV
Видео кодек: AVC
Аудио кодек: MP2
Видео: 720@1048x576 (16:9), 25.000 fps, ~2500 kbps, ~0.24 bit/pixel
Аудио: 48 kHz, 2 ch, 192 kbps
-

Список боев

Part 1
Мужчины. До 81 кг. 1/8 финала
Хулио Сезар де ла Крус (Куба) - Мехмет Надир Унал (Турция) - с 3 раунда (включение прямой трансляции)
Хрвое Сеп (Хорватия) - Мишел Боржес (Бразилия)
Мужчины. До 91 кг. 1/4 финала
Евгений Тишенко (Россия) - Клементе Руссо (Италия)
Рустам Тулаганов (Узбекистан) - Абдулкадир Абдуллаев (Азербайджан)
Мужчины. До 49 кг. 1/4 финала
Хоанис Архилагос (Куба) - Питер Мунгаи Варуи (Кения)
Юберен Мартинес (Колумбия) - Самуэль Кармона Эредия (Испания)
Мужчины. До 56 кг. 1/16 финала
Бо Варавара (Вануату) - Владимир Никитин (Россия)
Мужчины. До 64 кг. 1/16 финала
Тураси Тумалингам (Катар) - Чинзориг Баатарсух (Монголия)

Part 2

Мужчины. До 56 кг. 1/16 финала
Дмитрий Асанов (Беларусь) - Хектор Гарсия (Доминиканская Республика) - с 2:27 1 раунда
Бенсон Гичару (Кения) - Эрдэнэбат Цэндбаатар (Монголия)
Робенилсон де Жесус (Бразилия) - Фахем Хаммаши (Алжир)
Мужчины. До 64 кг. 1/16 финала
Фазлиддин Гаибназаров (Узбекистан) - Дивал Малонга (Конго)
Манодж Кумар (Индия) - Эвальдас Пятраускас (Литва)
Ричардсон Хитчинс (Гаити) - Гэри Расселл (США)
Мужчины. До 81 кг. 1/8 финала
Матьё Бодерлик (Франция) - Хуан Карлос Карильо (Колумбия)
Карлос Андрес Мина (Эквадор) - Джозеф Уорд (Ирландия)
Мужчины. До 91 кг. 1/4 финала
Василий Левит (Казахстан) - Кеннеди Сен-Пьерр (Маврикий)
Ямиль Альберто Перальта (Аргентина) - Эрисланди Савон (Куба)
Мужчины. До 49 кг. 1/4 финала
Хасанбой Дусматов (Узбекистан) - Биржан Жакыпов (Казахстан)
Карлос Эдуардо Кипо (Эквадор) - Нико Эрнандес (США)

MediaInfo

Общее
Формат : Matroska
Версия формата : Version 4 / Version 2
Размер файла : 2,24 Гбайт
Продолжительность : 1 ч. 57 м.
Общий поток : 2720 Кбит/сек
Название фильма : XXXI Летние Олимпийские Игры / Бокс / Мужчины до 49 (1/4 финала), 56, 64 (1/16 финала), 81 (1/8 финала) и 91 кг (1/4 финала) / 10.08.2016
Дата кодирования : UTC 2016-08-11 07:17:28
Программа кодирования : mkvmerge v6.5.0 ('Isn't she lovely') built on Oct 20 2013 12:50:05
Библиотека кодирования : libebml v1.3.0 + libmatroska v1.4.1
Видео
Идентификатор : 1
Формат : AVC
Формат/Информация : Advanced Video Codec
Профиль формата : High@L3
Параметр CABAC формата : Да
Параметр ReFrames формата : 4 кадра
Идентификатор кодека : V_MPEG4/ISO/AVC
Продолжительность : 1 ч. 57 м.
Битрейт : 2474 Кбит/сек
Ширина : 720 пикселей
Высота : 576 пикселей
Соотношение сторон : 16:9
Режим частоты кадров : Постоянный
Частота кадров : 25,000 кадров/сек
Стандарт вещания : PAL
Цветовое пространство : YUV
Субдискретизация насыщенности : 4:2:0
Битовая глубина : 8 бит
Тип развёртки : Чересстрочная
Метод сохранения типа развёртки : Раздельные поля
Порядок развёртки : Нижнее поле первое
Бит/(Пиксели*Кадры) : 0.239
Размер потока : 2,04 Гбайт (91%)
Default : Да
Forced : Нет
Цветовой диапазон : Limited
Основные цвета : BT.601 PAL
Характеристики трансфера : BT.470 System B, BT.470 System G
Коэффициенты матрицы : BT.601
Аудио
Идентификатор : 2
Формат : MPEG Audio
Версия формата : Version 1
Профиль формата : Layer 2
Идентификатор кодека : A_MPEG/L2
Идентификатор кодека/Подсказка : MP2
Продолжительность : 1 ч. 57 м.
Вид битрейта : Постоянный
Битрейт : 192 Кбит/сек
Каналы : 2 канала
Частота : 48,0 КГц
Метод сжатия : С потерями
Размер потока : 162 Мбайт (7%)
Заголовок : Матч! Боец (Борис Скрипко)
Язык : Russian
Default : Да
Forced : Нет

Продолжительность

01:57:56 + 03:12:43

Скриншоты


Показать сообщения:    

Текущее время: 20-Окт 18:52

Часовой пояс: UTC - 1


Вы не можете начинать темы
Вы не можете отвечать на сообщения
Вы не можете редактировать свои сообщения
Вы не можете удалять свои сообщения
Вы не можете голосовать в опросах
Вы не можете прикреплять файлы к сообщениям
Вы не можете скачивать файлы

!ВНИМАНИЕ!
Сайт не предоставляет электронные версии произведений, а занимается лишь коллекционированием и каталогизацией ссылок, присылаемых и публикуемых на форуме нашими читателями. Если вы являетесь правообладателем какого-либо представленного материала и не желаете, чтобы ссылка на него находилась в нашем каталоге, свяжитесь с нами, и мы незамедлительно удалим ее. Файлы для обмена на трекере предоставлены пользователями сайта, и администрация не несет ответственности за их содержание. Просьба не заливать файлы, защищенные авторскими правами, а также файлы нелегального содержания!