Важное объявление!
У Нас Все раздачи мультитрекерные, при нуле пиров в релизах, можете смело вставать на закачку!
 
Автор Сообщение

HUNTER

Стаж:
4 года 8 месяцев
Сообщений:
61985

Репутация: 101

[+] [-]
Вне форума [Профиль] [ЛС]

«XXS» / 7 выпусков из ???
Страна: Россия
Тематика: Кулинарное шоу
Тип раздаваемого материала: Видеоурок
Продолжительность: ~00:23:00
Год выпуска: 2013
Язык: Русский
Перевод: Не требуется
Описание: Нет, мы не пытаемся похудеть. XXS — это о еде в малых формах. Ведущая — очаровательная Алена Изюмская! Ей 27, у нее съедобная фамилия и страсть к миниатюрным блюдам. Она против тазов с салатами и «за» мини-порции. Сплетни о канапе, слухи о тапасах, тайны тартинок — Алена расскажет все!
Релиз:
Tarjaa
Содержание:
01. Сочельник.
В праздничный зимний вечер угостите своих близких самыми вкусными, изысканными блюдами. Пусть они будут небольшими в формате XXS, - но очень необычными, вкусными и приготовленными с любовью. Что может быть приятнее такого подарка на праздник!
02.Завтрак.
Завтрак вполне может быть и из трёх блюд, если они в формате XXS! Порадуйте свою семью аппетитными бутербродами со шпинатом и перепелиным яйцом, мини-драниками с колбасой и свежим фруктовым салатом. Не это ли отличное начало дня?!
03.Вечер в шерстяных носках.
Что может быть приятней, чем пригласить друзей, уютно устроиться у камина и вкусно поесть! Накрывать огромный стол при этом совершенно необязательно. Приготовьте 3 сытные закуски небольшого размера XXS и удивите своих друзей!
04.Новый Год.
Не хотите объедаться в Новый Год? Но не можете отказать себе в селёдке под шубой и бутербродах с икрой? А кто сказал, что нужно отказываться? Приготовьте любимые блюда в новом формате XXS!
05.Сырная вечеринка.
Устройте праздник для любителей сыров и угостите их сырной тарелкой с медовым соусом, тостами с сыром с голубой плесенью и сырным кремом с клубникой. Три сырные закуски в формате XXS заменят полноценный ужин!
06.Морской фуршет.
Устройте вечер с морской тематикой и угостите друзей закусками с рыбой и морепродуктами. Не забудьте, что они очень сытные, так что не переусердствуйте с порциями. Лучший размер таких закусок XXS.
07.Девичник.
Чем угостить любимых друзей, если они уже устали от тазов с салатами? - Приготовьте несколько маленьких закусок. Но не бойтесь, что гости уйдут голодные. Несмотря на свой крошечный размер, закуски XXS очень сытные!
MediaInfo:
General
Complete name : «XXS».Xvid.SATRip_Tarjaa\01. Сочельник..avi
Format : AVI
Format/Info : Audio Video Interleave
File size : 327 MiB
Duration : 21mn 26s
Overall bit rate : 2 133 Kbps
Writing application : VirtualDubMod 1.5.10.3 | www.virtualdub-fr.org || (build 2550/release)
Writing library : VirtualDubMod build 2550/release
Video
ID : 0
Format : MPEG-4 Visual
Format profile : Advanced Simple@L5
Format settings, BVOP : 1
Format settings, QPel : No
Format settings, GMC : No warppoints
Format settings, Matrix : Default (H.263)
Codec ID : XVID
Codec ID/Hint : XviD
Duration : 21mn 26s
Bit rate : 1 995 Kbps
Width : 720 pixels
Height : 400 pixels
Display aspect ratio : 16:9
Frame rate : 25.000 fps
Color space : YUV
Chroma subsampling : 4:2:0
Bit depth : 8 bits
Scan type : Progressive
Compression mode : Lossy
Bits/(Pixel*Frame) : 0.277
Stream size : 306 MiB (94%)
Writing library : XviD 1.2.1 (UTC 2008-12-04)
Audio
ID : 1
Format : MPEG Audio
Format version : Version 1
Format profile : Layer 3
Codec ID : 55
Codec ID/Hint : MP3
Duration : 21mn 26s
Bit rate mode : Constant
Bit rate : 128 Kbps
Channel count : 2 channels
Sampling rate : 48.0 KHz
Compression mode : Lossy
Stream size : 19.6 MiB (6%)
Alignment : Aligned on interleaves
Interleave, duration : 40 ms (1.00 video frame)
Interleave, preload duration : 504 ms
Writing library : LAME3.98r
Encoding settings : -m s -V 4 -q 2 -lowpass 17 -b 128
Качество: SATRip
Формат: AVI
Видео кодек: XviD
Аудио кодек: MP3
Видео: Xvid 720x400 25.00fps Bit rate:~ 1995 Kbps
Аудио: MPEG Audio Layer 3 48000Hz stereo 2 ch, ~ 128 Кбит/с [Stream 01]

Скриншоты


_________________
Показать сообщения:    

Текущее время: Сегодня 04:47

Часовой пояс: GMT



Вы не можете начинать темы
Вы не можете отвечать на сообщения
Вы не можете редактировать свои сообщения
Вы не можете удалять свои сообщения
Вы не можете голосовать в опросах
Вы не можете прикреплять файлы к сообщениям
Вы не можете скачивать файлы
Наши партнеры: интернет магазин Ивановского трикотажа textilla.ru