Xoлоднoe сepдцe / Fгоzеn (Крис Бак, Дженнифер Ли / Chris Buck , Jennifer Lee) [2013 г., мультфильм, мюзикл, приключения, семейный, BDRip-AVC] (Локализованный видеоряд) Dub + AVO (Живов, Сербин) + Eng + Subs (Rus, Eng) :: Ивановский Торрент трекер
Важное объявление!
У Нас Все раздачи мультитрекерные, при нуле пиров в релизах, можете смело вставать на закачку!
Статистика раздачи
Размер:     |    Зарегистрирован:     |    Скачан:     |   
Нет
 
     
 
 
Автор Сообщение

HUNTER

Стаж:
4 года 11 месяцев
Сообщений:
66098

Репутация: 101

[+] [-]
Вне форума [Профиль] [ЛС]

| BDRip-AVC, 2.94/3.26 GB |- P R E S E N T SХолодное сердце / Frozen-
Страна: США
Жанр: мультфильм, мюзикл, приключения, семейный
Продолжительность: 01:42:13
Год выпуска: 2013
Перевод 1: Профессиональный (полное дублирование)
Перевод 2: Авторский (одноголосый закадровый) Юрий Живов
Перевод 3: Авторский (одноголосый закадровый) Юрий Сербин
Субтитры: есть-Режиссёр: Крис Бак, Дженнифер Ли / Chris Buck , Jennifer Lee
Роли озвучивали: Кристен Белл, Идина Мензел, Джонатан Грофф, Джош Гад, Сантино Фонтана, Алан Тьюдик, Киаран Хайндс, Крис Уильямс, Стивен Дж. Андерсон, Майа Уилсон, Эди МакКлёрг, Роберт Пайн, Морис ЛаМарш, Ливвай Штубенраух, Ева Белла...
Роли дублировали: Наталия Быстрова, Анна Бутурлина, Андрей Бирин, Сергей Пенкин, Дима Билан, Владимир Рыбальченко, Сергей Чихачев, Анастасия Лапина и др.- | | <- Рекомендуется присутствие родителей-Описание: Когда древнее предсказание сбывается и королевство погружается в объятия вечной зимы, трое бесстрашных героев - принцесса Анна, отважный Кристофф и его верный олень Свен - отправляются в горы, чтобы найти сестру Анны, Эльзу, которая может снять со страны леденящее заклятие. По пути их ждет множество увлекательных сюрпризов и захватывающих приключений: встреча с мистическими троллями, знакомство с очаровательным снеговиком по имени Олаф, горные вершины покруче Эвереста и магия в каждой снежинке. Анне и Кристоффу предстоит сплотиться и противостоять могучей стихии, чтобы спасти королевство и тех, кто им дорог...-Доп. информация: BDRip-AVC 530p сделан с Blu-Ray диска Frozen (2013) Blu-ray CEE 1080p AVC DD5.1-HDClub (Локализованный видеоряд).
Отдельное спасибо xfiles за подготовку русских субтитров.
-Сэмпл/Sample (28.93 MB, 1 минута)-Качество: BDRip-AVC
Формат: MKV
Видео: 1186x530 (2.238:1), 23,976 fps, ~2772 kbps avg, 0.184 bit/pixel
Аудио #1: Русский, AC3, 6 ch, 48 kHz, 448 kbps - Полное дублирование
Аудио #2: Русский, AC3, 6 ch, 48 kHz, 448 kbps - AVO | Юрий Живов
Аудио #3: Русский, AC3, 6 ch, 48 kHz, 448 kbps - AVO | Юрий Сербин
Аудио #4: English, AC3, 6 ch, 48 kHz, 448 kbps - Original | Отдельным файлом
Субтитры: Русские (полные), English (Full, SDH)
Навигация по главам: есть (16 именованных глав)

MediaInfo / x264Log

x264Log
raw [info]: 1186x530p 1:1 @ 24000/1001 fps (cfr)x264 [info]: using SAR=1/1x264 [info]: using cpu capabilities: MMX2 SSE2Fast SSSE3 SSE4.2 AVX XOP FMA4 FMA3 LZCNT BMI1x264 [info]: profile High, level 4.1x264 [info]: frame I:1188 Avg QP:12.44 size: 98361 PSNR Mean Y:50.08 U:52.40 V:52.73 Avg:50.59 Global:49.96x264 [info]: frame P:39064 Avg QP:15.99 size: 25346 PSNR Mean Y:48.05 U:51.36 V:51.87 Avg:48.66 Global:47.98x264 [info]: frame B:106793 Avg QP:18.88 size: 9533 PSNR Mean Y:47.68 U:51.19 V:51.73 Avg:48.32 Global:47.40x264 [info]: consecutive B-frames: 2.5% 3.4% 31.1% 24.1% 14.4% 19.6% 1.2% 2.2% 0.5% 0.2% 0.2% 0.1% 0.1% 0.3%x264 [info]: mb I I16..4: 6.6% 62.8% 30.6%x264 [info]: mb P I16..4: 0.7% 10.6% 3.1% P16..4: 22.2% 24.7% 11.1% 2.7% 0.4% skip:24.4%x264 [info]: mb B I16..4: 0.2% 2.6% 0.6% B16..8: 24.2% 16.5% 3.1% direct: 3.7% skip:49.1% L0:39.5% L1:45.0% BI:15.5%x264 [info]: 8x8 transform intra:73.2% inter:49.3%x264 [info]: coded y,uvDC,uvAC intra: 84.1% 81.3% 65.1% inter: 15.4% 13.4% 5.2%x264 [info]: i16 v,h,dc,p: 17% 19% 7% 57%x264 [info]: i8 v,h,dc,ddl,ddr,vr,hd,vl,hu: 13% 13% 8% 8% 11% 9% 13% 10% 15%x264 [info]: i4 v,h,dc,ddl,ddr,vr,hd,vl,hu: 23% 13% 7% 7% 12% 10% 11% 8% 11%x264 [info]: i8c dc,h,v,p: 31% 35% 19% 15%x264 [info]: Weighted P-Frames: Y:3.2% UV:2.3%x264 [info]: ref P L0: 57.0% 8.6% 13.4% 6.1% 4.3% 3.3% 2.6% 1.5% 1.2% 1.0% 0.8% 0.3% 0.0%x264 [info]: ref B L0: 76.0% 12.1% 5.1% 2.4% 1.5% 1.1% 0.8% 0.5% 0.3% 0.1%x264 [info]: ref B L1: 92.8% 7.2%x264 [info]: SSIM Mean Y:0.9905393 (20.241db)x264 [info]: PSNR Mean Y:47.800 U:51.246 V:51.775 Avg:48.431 Global:47.562 kb/s:2771.99encoded 147045 frames, 10.22 fps, 2771.99 kb/s
GeneralUnique ID : 204046512213733830490435084823892559672 (0x9981EDC5505931638E813EDCCC6F8738)Complete name : Frozen.2013.Rus.Video.BDRip-AVC.530p.dfcbit.mkvFormat : MatroskaFormat version : Version 2File size : 2.94 GiBDuration : 1h 42mnOverall bit rate : 4 119 KbpsEncoded date : UTC 2014-09-07 09:59:23Writing application : mkvmerge v4.0.0 ('The Stars were mine') built on Jun 6 2010 16:18:42Writing library : libebml v1.0.0 + libmatroska v1.0.0
VideoID : 1Format : AVCFormat/Info : Advanced Video CodecFormat profile : High@L4.1Format settings, CABAC : YesFormat settings, ReFrames : 11 framesCodec ID : V_MPEG4/ISO/AVCDuration : 1h 42mnBit rate : 2 772 KbpsWidth : 1 186 pixelsHeight : 530 pixelsDisplay aspect ratio : 2.25:1Frame rate mode : ConstantFrame rate : 23.976 fpsColor space : YUVChroma subsampling : 4:2:0Bit depth : 8 bitsScan type : ProgressiveBits/(Pixel*Frame) : 0.184Stream size : 1.98 GiB (65%)Title : NTSC, 1186x530 (2.238:1), BDRip-AVC 530p - tRuAVC & Multfilmy [DFCbit]Writing library : x264 core 142 r2431kMod ac76440Encoding settings : cabac=1 / ref=11 / deblock=1:-2:-1 / analyse=0x3:0x133 / me=umh / subme=11 / psy=1 / fade_compensate=0.00 / psy_rd=0.63:0.00 / mixed_ref=1 / me_range=32 / chroma_me=1 / trellis=2 / 8x8dct=1 / cqm=0 / deadzone=21,11 / fast_pskip=0 / chroma_qp_offset=-2 / threads=12 / lookahead_threads=3 / sliced_threads=0 / nr=0 / decimate=1 / interlaced=0 / bluray_compat=0 / constrained_intra=0 / fgo=0 / bframes=13 / b_pyramid=2 / b_adapt=2 / b_bias=0 / direct=1 / weightb=1 / open_gop=0 / weightp=2 / keyint=250 / keyint_min=23 / scenecut=40 / intra_refresh=0 / rc_lookahead=70 / rc=2pass / mbtree=0 / bitrate=2772 / ratetol=1.0 / qcomp=0.81 / qpmin=0 / qpmax=69 / qpstep=4 / cplxblur=20.0 / qblur=0.5 / vbv_maxrate=50000 / vbv_bufsize=62500 / nal_hrd=none / filler=0 / ip_ratio=1.40 / pb_ratio=1.30 / aq=3:0.90Language : RussianDefault : YesForced : NoColor primaries : BT.709Transfer characteristics : BT.709Matrix coefficients : BT.709
Audio #1ID : 2Format : AC-3Format/Info : Audio Coding 3Mode extension : CM (complete main)Format settings, Endianness : BigCodec ID : A_AC3Duration : 1h 42mnBit rate mode : ConstantBit rate : 448 KbpsChannel(s) : 6 channelsChannel positions : Front: L C R, Side: L R, LFESampling rate : 48.0 KHzBit depth : 16 bitsCompression mode : LossyStream size : 328 MiB (11%)Title : AC3, 6 ch, 48 kHz, 448 kbps - Полное дублированиеLanguage : RussianDefault : YesForced : No
Audio #2ID : 3Format : AC-3Format/Info : Audio Coding 3Mode extension : CM (complete main)Format settings, Endianness : BigCodec ID : A_AC3Duration : 1h 42mnBit rate mode : ConstantBit rate : 448 KbpsChannel(s) : 6 channelsChannel positions : Front: L C R, Side: L R, LFESampling rate : 48.0 KHzBit depth : 16 bitsCompression mode : LossyStream size : 328 MiB (11%)Title : AC3, 6 ch, 48 kHz, 448 kbps - AVO | Юрий ЖивовLanguage : RussianDefault : NoForced : No
Audio #3ID : 4Format : AC-3Format/Info : Audio Coding 3Mode extension : CM (complete main)Format settings, Endianness : BigCodec ID : A_AC3Duration : 1h 42mnBit rate mode : ConstantBit rate : 448 KbpsChannel(s) : 6 channelsChannel positions : Front: L C R, Side: L R, LFESampling rate : 48.0 KHzBit depth : 16 bitsCompression mode : LossyStream size : 328 MiB (11%)Title : AC3, 6 ch, 48 kHz, 448 kbps - AVO | Юрий СербинLanguage : RussianDefault : NoForced : No
Text #1ID : 5Format : UTF-8Codec ID : S_TEXT/UTF8Codec ID/Info : UTF-8 Plain TextTitle : ПолныеLanguage : RussianDefault : NoForced : No
Text #2ID : 6Format : UTF-8Codec ID : S_TEXT/UTF8Codec ID/Info : UTF-8 Plain TextTitle : FullLanguage : EnglishDefault : NoForced : No
Text #3ID : 7Format : UTF-8Codec ID : S_TEXT/UTF8Codec ID/Info : UTF-8 Plain TextTitle : (SDH)Language : EnglishDefault : NoForced : No
Menu00:00:00.000 : ru:1. Несчастный случай00:05:59.818 : ru:2. Скрывая свои силы00:11:37.947 : ru:3. День коронации00:19:53.734 : ru:4. Влюблённость00:31:03.195 : ru:5. Поиски Эльзы00:38:39.484 : ru:6. Попутчик00:44:21.284 : ru:7. Олаф00:50:51.507 : ru:8. Эльза найдена00:57:48.381 : ru:9. Снежный монстр01:02:57.399 : ru:10. Семья01:09:36.047 : ru:11. Возвращение01:13:34.869 : ru:12. Предательство01:18:07.599 : ru:13. Что такое любовь?01:22:33.740 : ru:14. Знак истинной любви01:27:10.809 : ru:15. Открытые ворота01:32:33.506 : ru:16. Финальные титры

Скриншоты

Скриншот с названием мультфильма / Локализация
--BDRip-AVC


Source Blu-Ray

Релиз от групп | and | -Данный релиз не будет воспроизводиться на бытовых плеерах не поддерживающих MKV и H.264Обсуждение релизов в AVC формате || Свежие AVC рипы

_________________
Показать сообщения:    

Текущее время: Сегодня 09:05

Часовой пояс: GMT



Вы не можете начинать темы
Вы не можете отвечать на сообщения
Вы не можете редактировать свои сообщения
Вы не можете удалять свои сообщения
Вы не можете голосовать в опросах
Вы не можете прикреплять файлы к сообщениям
Вы не можете скачивать файлы